Welcome Guest ( Log In | Register )

> Releases Upload / Добавление релизов

Добавить релиз тут / Click here to add release
Рекомендованные обменники / Recommended file shares

> Chaquen - Sacrum Mortualia (2018), Melodic Black Metal
post Oct 12 2018, 00:09:33
Post #1

Аннигилятор пивА
Group Icon
Group: V.I.P
Posts: 50,735
Releases: 15811
From: Koenigsberg - TILZIT
On Forums: 12 years 6 months
Thanks: 344845 time(s)
Russian Federation


(IMG:https://metalarea.org/images/audiocovers/2018_Oct/acov_tid311666_thumb.jpg)

*Artist: Chaquen
*Album: Sacrum Mortualia
*Year: 2018
*Genre: Melodic Black Metal
*Country: Mexico (IMG:https://metalarea.org/forum/style_images/flags/Mexico.png)
*Format: mp3@CBR320kbps
*Size: 78MB

Tracklist:
01. South Moon
02. Bachue
03. Across Orion
04. Primitivo
05. Huestes
06. Sueño Oscuro
07. Marcha Ancestral
08. Buscando a Wanuruju
09. Elemental (Bonus Track)
10. Ritual (Bonus Track)
******************************
Total playing time: 36:36



Extended info
Miguel Orjuela - Vocalista - Guitarrista
Juan Carlos González - Teclista
Fredy Robayo - Baterista


Technical info
(IMG:https://metalarea.org/images/spectrogram/2018_Oct/37653aab10d18c7367c6b62e6ad007b1.png)
Input File: 02. Bachue.mp3
Channels : 2
Sample Rate : 44100
Precision : 16-bit
Duration : 00:03:59.45 = 10559921 samples = 17959 CDDA sectors
File Size : 9.66M
Bit Rate : 323k
Sample Encoding: MPEG audio (layer I, II or III)
Comments :
Title=Bachue
Artist=Chaquen
Album=Sacrum Mortualia
Tracknumber=2
Year=2018
Discnumber=1



Register


Go to the top of the page
  Insert nick Quick quote
+Quote Post
 
Start new topic
Replies (1 - 4)
post Oct 12 2018, 07:30:12
Post #2

Аннигилятор пивА
Group Icon
Group: V.I.P
Posts: 50,735
Releases: 15811
From: Koenigsberg - TILZIT
On Forums: 12 years 6 months
Thanks: 344845 time(s)
Russian Federation


Go to the top of the page
  Insert nick Quick quote
+Quote Post
post Oct 12 2018, 15:06:45
Post #3

Мегаманьяк
***********
Group: Металариец
Posts: 1,738
Releases: 0
From: Dnipro
On Forums: 10 years 4 months
Thanks: 459 time(s)
Ukraine


Мексиканский BM можно узнавать даже не зная предварительно страну из которой группа, это как японский скримминг, его ни с чем не спутаешь.
Go to the top of the page
  Insert nick Quick quote
+Quote Post
post Oct 12 2018, 15:32:39
Post #4

Литр
*
Group: Подсевший
Posts: 55
Releases: 0
On Forums: 1 year 7 months
Thanks: 33 time(s)
Zimbabwe


ЦИТАТА(isvili @ Oct 12 2018, 18:06:45) *
Мексиканский BM можно узнавать даже не зная предварительно страну из которой группа, это как японский скримминг, его ни с чем не спутаешь.

ну вот. столько пафоса, а со страной впросак попал вслед за автором поста.
это колумбийцы


Thanks:
(1) Storky,
Go to the top of the page
  Insert nick Quick quote
+Quote Post
post Oct 16 2018, 11:44:35
Post #5

добрый мизантроп
***********
Group: Металариец
Posts: 1,618
Releases: 0
From: Минск
On Forums: 8 years 3 weeks
Thanks: 485 time(s)
Madagascar


preview (IMG:style_emoticons/default/true_black.gif) old school symphonic black


Thanks:
(1) artscald,
Go to the top of the page
  Insert nick Quick quote
+Quote Post

Reply to this topicStart new topic
1 User(s) are reading this topic (1 Guests and 0 Anonymous Users)
0 Members:

 



- Lo-Fi Version Support form
Copyrights and abuse reports form
Time is now: 10th December 2018 - 19:41:04