Welcome Guest ( Log In | Register )

> Releases Upload / Добавление релизов

Добавить релиз тут / Click here to add release
Рекомендованные обменники / Recommended file shares

> Hæster - All Anchors No Sails (2018), Progressive Dark/Post-Metal
post Oct 12 2018, 00:25:22
Post #1

Аннигилятор пивА
Group Icon
Group: V.I.P
Posts: 49,504
Releases: 15303
From: Koenigsberg - TILZIT
On Forums: 12 years 4 months
Thanks: 333508 time(s)
Russian Federation


(IMG:https://metalarea.org/images/audiocovers/2018_Oct/acov_tid311667_thumb.jpg)

*Artist: Hæster
*Album: All Anchors No Sails
*Year: 2018
*Genre: Progressive Dark/Post-Metal
*Country: Belgium (IMG:https://metalarea.org/forum/style_images/flags/Belgium.png)
*Format: mp3@CBR320kbps
*Size: 107MB

Tracklist:
01. Ironmongers
02. Ghost in Us
03. So That We Could Live
04. Bucephalas
05. I've Seen This Blood
06. Graves
07. Ghost in Machines
08. All Anchors No Sails
******************************
Total playing time: 44:58



Extended info
From the ashes and clay of their Belgian soil, Hæster steadily molded their dark and intense musical path. Composed of ex-members from Aborted, Nemea, Dedicted, Customs, Death Before Disco and Horses on Fire

Ace Zec
Joan Govaerts
Maarten Levecque
Thijs Decloedt
Wannes Kerckhove
Guests:
Brennt Vanneste (Steak Number Eight)
Stefanie Mannaerts (Brutus)
Sven De Caluwé (Aborted)




Technical info
(IMG:https://metalarea.org/images/spectrogram/2018_Oct/fcae06fd2b7cf096aa698a0f1bccd396.png)
Input File: 02 Ghost in Us.mp3
Channels : 2
Sample Rate : 44100
Precision : 16-bit
Duration : 00:03:51.27 = 10199183 samples = 17345.5 CDDA sectors
File Size : 9.86M
Bit Rate : 341k
Sample Encoding: MPEG audio (layer I, II or III)
Comments :
Title=Ghost in Us
Artist=Hæster
Album=All Anchors No Sails
Tracknumber=2/8
Year=2018
Genre=Metal
Discnumber=1/1



Register


Thanks:
Go to the top of the page
  Insert nick Quick quote
+Quote Post
 
Start new topic
Replies (1 - 2)
post Oct 12 2018, 07:31:01
Post #2

Аннигилятор пивА
Group Icon
Group: V.I.P
Posts: 49,504
Releases: 15303
From: Koenigsberg - TILZIT
On Forums: 12 years 4 months
Thanks: 333508 time(s)
Russian Federation


MIRROR
Register


Thanks:
Go to the top of the page
  Insert nick Quick quote
+Quote Post
post Oct 12 2018, 11:11:28
Post #3

Три Литра
***
Group: Завсегдатай
Posts: 277
Releases: 54
From: Rostov-on-Don, Russia
On Forums: 11 years 11 months
Thanks: 546 time(s)
Russian Federation


Кстати очень хорошо!!! Душевненько.... прогрессивненько и мрачновато (IMG:style_emoticons/default/smile1.gif)
Go to the top of the page
  Insert nick Quick quote
+Quote Post

Reply to this topicStart new topic
1 User(s) are reading this topic (1 Guests and 0 Anonymous Users)
0 Members:

 



- Lo-Fi Version Support form
Copyrights and abuse reports form
Time is now: 20th October 2018 - 01:03:26