Welcome Guest ( Log In | Register )

> Releases Upload / Добавление релизов

Добавить релиз тут / Click here to add release
Рекомендованные обменники / Recommended file shares

 
Reply to this topicStart new topic
> The Acacia Strain - Continent (2018), Deathcore (D)
post Oct 12 2018, 00:41:42
Post #1

Аннигилятор пивА
Group Icon
Group: V.I.P
Posts: 50,733
Releases: 15811
From: Koenigsberg - TILZIT
On Forums: 12 years 6 months
Thanks: 344838 time(s)
Russian Federation


(IMG:https://metalarea.org/images/audiocovers/2018_Oct/acov_tid311668_thumb.jpg)

*Artist: The Acacia Strain
*Album: Continent
*Year: 2018
*Genre: Deathcore
*Country: United States (IMG:https://metalarea.org/forum/style_images/flags/United%20States.png)
*Format: mp3@CBR320kbps
*Size: 120MB

Tracklist:
01. Skynet
02. The Combine
03. The Behemoth
04. Seaward
05. Dr. Doom
06. Forget-Me-Now
07. Cthulhu
08. Baby Buster
09. Balboa Towers
10. Jfc
11. Kraken
12. Global Warming
13. Stay Puft
******************************
Total playing time: 46:32



Extended info





Technical info
(IMG:https://metalarea.org/images/spectrogram/2018_Oct/856f8b49d2eb280fa4ee669647d59e95.png)
Input File: 02 The Combine.mp3
Channels : 2
Sample Rate : 44100
Precision : 16-bit
Duration : 00:02:02.24 = 5390608 samples = 9167.7 CDDA sectors
File Size : 6.00M
Bit Rate : 392k
Sample Encoding: MPEG audio (layer I, II or III)
Comments :
Title=The Combine
Artist=The Acacia Strain
Album=Continent
Tracknumber=2/13
Year=2018
Genre=Rock
Discnumber=1/1



Register


Thanks:
Go to the top of the page
  Insert nick Quick quote
+Quote Post

Reply to this topicStart new topic
1 User(s) are reading this topic (1 Guests and 0 Anonymous Users)
0 Members:

 



- Lo-Fi Version Support form
Copyrights and abuse reports form
Time is now: 10th December 2018 - 18:07:34