Welcome Guest ( Log In | Register )

> Releases Upload / Добавление релизов

Добавить релиз тут / Click here to add release
Рекомендованные обменники / Recommended file shares

> Walkyria - The Invisible Guest (2018), Thrash Metal
post Oct 12 2018, 01:15:47
Post #1

Аннигилятор пивА
Group Icon
Group: V.I.P
Posts: 49,408
Releases: 15247
From: Koenigsberg - TILZIT
On Forums: 12 years 4 months
Thanks: 332744 time(s)
Russian Federation


(IMG:https://metalarea.org/images/audiocovers/2018_Oct/acov_tid311669_thumb.jpg)

*Artist: Walkyria
*Album: The Invisible Guest
*Year: 2018
*Genre: Thrash Metal
*Country: Argentina (IMG:https://metalarea.org/forum/style_images/flags/Argentina.png)
*Format: mp3@CBR320kbps
*Size: 87MB

Tracklist:
01. Black Hills
02. Open Grave
03. All the Time
04. Drive Angry
05. Evil Clown
06. Venom Tears
07. Out of Brain
08. March of Die
******************************
Total playing time: 36:20



Extended info
Horacio Arias - Bass
Alejandro Vassallo - Drums See also: ex-Martin Knye-Magiar, ex-Dagas
Javier Gandolfo - Guitars See also: ex-Dagas
Cristian Mariani - Guitars
Diego Bao - Vocals


Technical info
(IMG:https://metalarea.org/images/spectrogram/2018_Oct/fc9d4ea31e011a3095924539abc89797.png)
Input File: 04 Drive Angry.mp3
Channels : 2
Sample Rate : 44100
Precision : 16-bit
Duration : 00:03:56.19 = 10415803 samples = 17714 CDDA sectors
File Size : 10.0M
Bit Rate : 339k
Sample Encoding: MPEG audio (layer I, II or III)
Comments :
Title=Drive Angry
Artist=Walkyria
Album=The Invisible Guest
Tracknumber=4/8
Year=2018
Genre=Rock
Discnumber=1/1



Register


Go to the top of the page
  Insert nick Quick quote
+Quote Post
 
Start new topic
Replies (1 - 2)
post Oct 12 2018, 07:32:44
Post #2

Аннигилятор пивА
Group Icon
Group: V.I.P
Posts: 49,408
Releases: 15247
From: Koenigsberg - TILZIT
On Forums: 12 years 4 months
Thanks: 332744 time(s)
Russian Federation


MIRROR

Register





Thanks:
(1) Megaden,
Go to the top of the page
  Insert nick Quick quote
+Quote Post
post Oct 12 2018, 08:40:20
Post #3

hearer & reader
**************
Group: Металариец
Posts: 6,965
Releases: 89
From: Moscow
On Forums: 11 years 1 month
Thanks: 6685 time(s)
Russian Federation


Паверок всё же чувствуется, а музычка простовата.
Go to the top of the page
  Insert nick Quick quote
+Quote Post

Reply to this topicStart new topic
1 User(s) are reading this topic (1 Guests and 0 Anonymous Users)
0 Members:

 



- Lo-Fi Version Support form
Copyrights and abuse reports form
Time is now: 17th October 2018 - 13:03:42