Welcome Guest ( Log In | Register )

> Releases Upload / Добавление релизов

Добавить релиз тут / Click here to add release
Рекомендованные обменники / Recommended file shares

> Era Zero - Era Zero (2018), Progressive Power Metal
post Oct 12 2018, 04:01:43
Post #1

Serial Uploader
Group Icon
Group: V.I.P
Posts: 33,387
Releases: 31657
From: Lithuania
On Forums: 10 years 6 months
Thanks: 361634 time(s)
Lithuania


(IMG:http://metalarea.org/images/audiocovers/2018_Oct/acov_tid311670_thumb.jpg)

*Artist: Era Zero
*Album: Era Zero
*Year: 2018
*Genre: Progressive Power Metal
*Country: Spain (IMG:http://metalarea.org/forum/style_images/flags/Spain.png)
*Format: mp3@CBR320kbps
*Size: 91MB

Tracklist:
01. Despertar
02. Quimera
03. Ritual
04. Babilonia
05. Lobo
06. Sirena
07. Alma Negra
******************************
Total playing time: 39:51



Technical info
(IMG:http://metalarea.org/images/spectrogram/2018_Oct/61a556d75d3c1f3c5a640b63cb5e6ce2.png)
Input File: 02. Quimera.mp3
Channels : 2
Sample Rate : 44100
Precision : 16-bit
Duration : 00:06:56.10 = 18350186 samples = 31207.8 CDDA sectors
File Size : 16.6M
Bit Rate : 320k
Sample Encoding: MPEG audio (layer I, II or III)
Comments :
Title=Quimera
Artist=Era Zero
Album=Era Zero
Tracknumber=2/7
Year=2018



Register


Thanks:
Go to the top of the page
  Insert nick Quick quote
+Quote Post
 
Start new topic
Replies (1 - 2)
post Oct 12 2018, 07:31:17
Post #2

Два Литра
**
Group: Завсегдатай
Posts: 187
Releases: 0
From: Россия
On Forums: 6 years 10 months
Thanks: 62 time(s)
Russian Federation


Альбом 2016г

Go to the top of the page
  Insert nick Quick quote
+Quote Post
post Oct 12 2018, 08:36:58
Post #3

hearer & reader
**************
Group: Металариец
Posts: 7,220
Releases: 92
From: Moscow
On Forums: 11 years 3 months
Thanks: 6865 time(s)
Russian Federation



а всё равно, какого оно года


Thanks:
(1) Foneg,
Go to the top of the page
  Insert nick Quick quote
+Quote Post

Reply to this topicStart new topic
1 User(s) are reading this topic (1 Guests and 0 Anonymous Users)
0 Members:

 



- Lo-Fi Version Support form
Copyrights and abuse reports form
Time is now: 10th December 2018 - 19:23:06