Welcome Guest ( Log In | Register )

> Releases Upload / Добавление релизов

Добавить релиз тут / Click here to add release
Рекомендованные обменники / Recommended file shares

 
Reply to this topicStart new topic
> Bringer Of Sorrow - They Dwell In Lightning (2018), Sludge/Doom Metal
post Oct 12 2018, 04:04:18
Post #1

Serial Uploader
Group Icon
Group: V.I.P
Posts: 33,387
Releases: 31657
From: Lithuania
On Forums: 10 years 6 months
Thanks: 361633 time(s)
Lithuania


(IMG:http://metalarea.org/images/audiocovers/2018_Oct/acov_tid311671_thumb.jpg)

*Artist: Bringer Of Sorrow
*Album: They Dwell In Lightning
*Year: 2018
*Genre: Sludge/Doom Metal
*Country: United States (IMG:http://metalarea.org/forum/style_images/flags/United%20States.png)
*Format: mp3@CBR320kbps
*Size: 74MB

Tracklist:
01. Saturns Throne
02. Moon Dance
03. Bringer of Sorrow
04. Circle of Salt
05. Noiseless Infinity
06. They Dwell in Lightning
07. Bloodhawk
08. When the Ground Bleeds Black
09. Spell Master
10. Vessel
******************************
Total playing time: 32:04



Technical info
(IMG:http://metalarea.org/images/spectrogram/2018_Oct/08e29a3eea4385fdc74a68067f15b4d0.png)
Input File: 02. Moon Dance.mp3
Channels : 2
Sample Rate : 44100
Precision : 16-bit
Duration : 00:05:01.71 = 13305323 samples = 22628.1 CDDA sectors
File Size : 12.2M
Bit Rate : 322k
Sample Encoding: MPEG audio (layer I, II or III)
Comments :
Title=Moon Dance
Artist=Bringer of Sorrow
Album=They Dwell in Lightning
Tracknumber=2/10
Year=2018



Register


Go to the top of the page
  Insert nick Quick quote
+Quote Post

Reply to this topicStart new topic
1 User(s) are reading this topic (1 Guests and 0 Anonymous Users)
0 Members:

 



- Lo-Fi Version Support form
Copyrights and abuse reports form
Time is now: 10th December 2018 - 18:25:20