Welcome Guest ( Log In | Register )

> Releases Upload / Добавление релизов

Добавить релиз тут / Click here to add release
Рекомендованные обменники / Recommended file shares

> Paradigm Shift - Sammukh (2018), Oriental Progressive Metal/Rock (D4)
post Oct 12 2018, 05:17:08
Post #1

Аннигилятор пивА
Group Icon
Group: V.I.P
Posts: 50,735
Releases: 15811
From: Koenigsberg - TILZIT
On Forums: 12 years 6 months
Thanks: 344844 time(s)
Russian Federation


(IMG:https://metalarea.org/images/audiocovers/2018_Oct/acov_tid311672_thumb.jpg)

*Artist: Paradigm Shift
*Album: Sammukh
*Year: 2018
*Genre: Oriental Progressive Metal/Rock
*Country: India (IMG:https://metalarea.org/forum/style_images/flags/India.png)
*Format: mp3@CBR320kbps
*Size: 153MB

Tracklist:
01. Vimukh
02. Bekhabar
03. Wajah
04. Khoye The Hum
05. Banjaara
06. Kyun?
07. Aazaadi
08. Baatein
09. Saaraansh
10. Sammukh
******************************
Total playing time: 1:05:56



Extended info
Kaushik Ramachandran - Vocals
Chinmay Agharkar - Guitars
Desikan Gopalan - Guitars
Ajay Jayanthi - Violin
Ariel Samson - Bass
Aamir Ismail Shaikh - Drums


Technical info
(IMG:https://metalarea.org/images/spectrogram/2018_Oct/89d6af5dc5fa306bebac9c705b792bac.png)
Input File: 01 Vimukh.mp3
Channels : 2
Sample Rate : 44100
Precision : 16-bit
Duration : 00:06:14.44 = 16512628 samples = 28082.7 CDDA sectors
File Size : 15.0M
Bit Rate : 320k
Sample Encoding: MPEG audio (layer I, II or III)
Comments :
Title=Vimukh
Artist=Paradigm Shift
Album=Sammukh
Tracknumber=1/10
Year=2018
Genre=Metal
Discnumber=1/1



Register


This post has been edited by Borderline1991: Oct 12 2018, 07:34:08


Go to the top of the page
  Insert nick Quick quote
+Quote Post
 
Start new topic
Replies (1 - 2)
post Oct 12 2018, 07:35:17
Post #2

Аннигилятор пивА
Group Icon
Group: V.I.P
Posts: 50,735
Releases: 15811
From: Koenigsberg - TILZIT
On Forums: 12 years 6 months
Thanks: 344844 time(s)
Russian Federation


MIRROR
Register



Go to the top of the page
  Insert nick Quick quote
+Quote Post
post Oct 12 2018, 10:53:10
Post #3

Три Литра
***
Group: Завсегдатай
Posts: 288
Releases: 54
From: Rostov-on-Don, Russia
On Forums: 12 years 4 weeks
Thanks: 556 time(s)
Russian Federation


А мне понравилось
Go to the top of the page
  Insert nick Quick quote
+Quote Post

Reply to this topicStart new topic
1 User(s) are reading this topic (1 Guests and 0 Anonymous Users)
0 Members:

 



- Lo-Fi Version Support form
Copyrights and abuse reports form
Time is now: 10th December 2018 - 19:37:16