Welcome Guest ( Log In | Register )

> Releases Upload / Добавление релизов

Добавить релиз тут / Click here to add release
Рекомендованные обменники / Recommended file shares

> Marsh Dweller - Wanderer (2018), Progressive/Post-Black Metal
post Oct 12 2018, 05:32:33
Post #1

Аннигилятор пивА
Group Icon
Group: V.I.P
Posts: 49,504
Releases: 15303
From: Koenigsberg - TILZIT
On Forums: 12 years 4 months
Thanks: 333507 time(s)
Russian Federation


(IMG:https://metalarea.org/images/audiocovers/2018_Oct/acov_tid311673_thumb.jpg)

*Artist: Marsh Dweller
*Album: Wanderer
*Year: 2018
*Genre: Progressive/Post-Black Metal
*Country: United States (IMG:https://metalarea.org/forum/style_images/flags/United%20States.png)
*Format: mp3@CBR320kbps
*Size: 120MB

Tracklist:
1. Wander I 09:03
2. Wander II 17:24
3. Coalesce 05:55
4. Fall 04:20
5. Wander III 11:31
6. Wander IV 03:20
******************************
Total playing time: 51:33



Extended info
John Kerr - Guitars, Vocals, Drums, Bass, Synthesizers (2012-present) See also: Noltem, Pyrithe, Seidr, Yahar'gul, ex-Vit
Michelle Bellucci - Vocals
Jason William Walton - Vocals (Celestiial, Khôrada, Nothing, Sculptured, ex-Agalloch, ex-V.B.G., Circadian, Dolven, Hiraeth Eschar, Jason W. Walton, Snares of Sixies, ex-Subterranean Masquerade, ex-Cold Colours, ex-Climb to Zalem, ex-Designed 2 Fade, ex-Especially Likely Sloth, ex-Hollow Branches, ex-Indelible, ex-Remember, ex-Self Spiller, ex-Sussurrus Inanis)


Technical info
(IMG:https://metalarea.org/images/spectrogram/2018_Oct/3548728b149dc35a250a466f7350b781.png)
Input File: 04. Fall.mp3
Channels : 2
Sample Rate : 44100
Precision : 16-bit
Duration : 00:04:21.01 = 11510409 samples = 19575.5 CDDA sectors
File Size : 10.4M
Bit Rate : 320k
Sample Encoding: MPEG audio (layer I, II or III)
Comments :
Title=FALL
Artist=Marsh Dweller
Album=Wanderer
Tracknumber=4
Year=2018
Genre=Black Metal



Register


Go to the top of the page
  Insert nick Quick quote
+Quote Post
 
Start new topic
Replies (1 - 1)
post Oct 12 2018, 07:36:11
Post #2

Аннигилятор пивА
Group Icon
Group: V.I.P
Posts: 49,504
Releases: 15303
From: Koenigsberg - TILZIT
On Forums: 12 years 4 months
Thanks: 333507 time(s)
Russian Federation


MIRROR
Register


Go to the top of the page
  Insert nick Quick quote
+Quote Post

Reply to this topicStart new topic
1 User(s) are reading this topic (1 Guests and 0 Anonymous Users)
0 Members:

 



- Lo-Fi Version Support form
Copyrights and abuse reports form
Time is now: 20th October 2018 - 01:00:19