Welcome Guest ( Log In | Register )

> Releases Upload / Добавление релизов

Добавить релиз тут / Click here to add release
Рекомендованные обменники / Recommended file shares

> NewBreed - Law (2018), Progressive Metal (D)
post Oct 12 2018, 05:49:24
Post #1

Аннигилятор пивА
Group Icon
Group: V.I.P
Posts: 49,408
Releases: 15247
From: Koenigsberg - TILZIT
On Forums: 12 years 4 months
Thanks: 332748 time(s)
Russian Federation


(IMG:https://metalarea.org/images/audiocovers/2018_Oct/acov_tid311674_thumb.jpg)

*Artist: NewBreed
*Album: Law
*Year: 2018
*Genre: Progressive Metal
*Country: Poland (IMG:https://metalarea.org/forum/style_images/flags/Poland.png)
*Format: mp3@CBR320kbps
*Size: 102MB

Tracklist:
1. Expectation's Chaos 04:42
2. Startime 04:55
3. Simon Said 05:34
4. Snakeater 06:26
5. Spiritual Pornography 05:53
6. Nettle's High Ground 04:50
7. Man of Steel 03:41
8. Skyscraper's Story 06:50
******************************
Total playing time: 42:51



Extended info
Adam Semla - Bass (Session), Bass (2015-present)
Stanisław Wołonciej - Drums (1999-present) See also: Egoist, ex-Angerpath, Brutally Awful Coffe, ex-Dream System, ex-Samo, ex-Slonina, ex-Spacebrain
Tomasz Wołonciej - Vocals, Guitars (1999-present) See also: ex-Angerpath, Brutally Awful Coffe, ex-Dream System, ex-Spacebrain
Szymon Fiuk - Guitars (2006-present) See also: ex-Angerpath


Technical info
(IMG:https://metalarea.org/images/spectrogram/2018_Oct/c2cc16b6342159daffbe63a9b107d4c3.png)
Input File: 02 Startime.mp3
Channels : 2
Sample Rate : 44100
Precision : 16-bit
Duration : 00:04:55.36 = 13025332 samples = 22151.9 CDDA sectors
File Size : 12.2M
Bit Rate : 330k
Sample Encoding: MPEG audio (layer I, II or III)
Comments :
Title=Startime
Artist=NewBreed
Album=Law
Tracknumber=2/8
Year=2018
Genre=Metal
Discnumber=1/1



Register


Go to the top of the page
  Insert nick Quick quote
+Quote Post
 
Start new topic
Replies (1 - 4)
post Oct 12 2018, 07:37:52
Post #2

Аннигилятор пивА
Group Icon
Group: V.I.P
Posts: 49,408
Releases: 15247
From: Koenigsberg - TILZIT
On Forums: 12 years 4 months
Thanks: 332748 time(s)
Russian Federation



MIRROR
Register



Thanks:
Go to the top of the page
  Insert nick Quick quote
+Quote Post
post Oct 12 2018, 11:00:17
Post #3

Три Литра
***
Group: Завсегдатай
Posts: 277
Releases: 54
From: Rostov-on-Don, Russia
On Forums: 11 years 11 months
Thanks: 546 time(s)
Russian Federation


Ух ты, какой классный альбом получился!!!
Go to the top of the page
  Insert nick Quick quote
+Quote Post
post Oct 12 2018, 13:43:19
Post #4

Правь статус, ####!111
**************
Group: Металариец
Posts: 2,737
Releases: 728
On Forums: 8 years 3 weeks
Thanks: 9605 time(s)
Ukraine


Альбом уже заслушан до дыр, спасибо за качество, но не указать Math Metal в жанрах было крайне дико, учитывая откровенный уход от постоянных прогрессивных запилов в сторону полиритмичного цикличного кача в этом и предыдущем альбомах. Более того можно было добавить Experimental, тут и пост-рока элементов хватает, и других фишек. А то "progressive metal"....Dream Theatre что-ли? Да? Ну-ну...
Go to the top of the page
  Insert nick Quick quote
+Quote Post
post Oct 14 2018, 16:16:04
Post #5

Три Литра
***
Group: Завсегдатай
Posts: 298
Releases: 0
From: Сибирь
On Forums: 7 years 7 months
Thanks: 82 time(s)
Russian Federation




Thanks:
(1) Shadowman,
Go to the top of the page
  Insert nick Quick quote
+Quote Post

Reply to this topicStart new topic
1 User(s) are reading this topic (1 Guests and 0 Anonymous Users)
0 Members:

 



- Lo-Fi Version Support form
Copyrights and abuse reports form
Time is now: 17th October 2018 - 13:54:51