Welcome Guest ( Log In | Register )

> Releases Upload / Добавление релизов

Добавить релиз тут / Click here to add release
Рекомендованные обменники / Recommended file shares

> Agrypnie - Pavor Nocturnus [compilation] (2018), Progressive/Post-Black Metal (D)
post Oct 12 2018, 06:37:04
Post #1

Аннигилятор пивА
Group Icon
Group: V.I.P
Posts: 49,504
Releases: 15303
From: Koenigsberg - TILZIT
On Forums: 12 years 4 months
Thanks: 333509 time(s)
Russian Federation


(IMG:https://metalarea.org/images/audiocovers/2018_Oct/acov_tid311675_thumb.jpg)

*Artist: Agrypnie
*Album: Pavor Nocturnus [compilation]
*Year: 2018
*Genre: Progressive/Post-Black Metal
*Country: Germany (IMG:https://metalarea.org/forum/style_images/flags/Germany.png)
*Format: mp3@CBR320kbps
*Size: 159MB

Tracklist:
1. Veritas Mutabilis 06:21
2. Pavor Nocturnus 07:09
3. Agrypnie 08:10
4. Neon 07:05
5. Sinnflut 09:04
6. Augenblick 07:13
7. 16[485] - Brücke aus Glas 08:57
8. Fenster zum Hof 11:04
9. Cogito Ergo Sum 07:41
******************************
Total playing time: 1:12:44



Extended info
3 заново перезаписанных демо-трэка, один новый и оркестровые версии некоторых вещей

Tracks 1-3 are demo rerecordings
Track 4 is a new track
Tracks 5-9 are orchestral versions

Torsten, der Unhold - Vocals, Guitars, Keyboards (Nocte Obducta, Anomalie, Harakiri for the Sky, ex-Asaru, ex-Heretoir, ex-Area 51)
Moe - Drums (Mammon, Graveworm, Ambassador (Aut), G.O.D, ex-Heretoir , ex-Scavenger of Souls)
Guest/Session:
Phil Hillen - Bass (Autumnblaze, Broken Glass, Godslave)
Rüdiger Gleisberg - Orchestrations
Marta - Vocals (female) (track 4), Lyrics (track 4) (Todtgelichter)
Traumschänder - Lyrics (tracks 1-3) (Nocte Obducta, Kamera Obskur, Agathodaimon)


Technical info
(IMG:https://metalarea.org/images/spectrogram/2018_Oct/ac289bfc73bf65b54c1b4fc137aad7df.png)
Input File: 02-agrypnie-pavor_nocturnus-3467d6ff.mp3
Channels : 2
Sample Rate : 44100
Precision : 16-bit
Duration : 00:07:08.77 = 18908933 samples = 32158 CDDA sectors
File Size : 17.3M
Bit Rate : 323k
Sample Encoding: MPEG audio (layer I, II or III)
Comments :
Title=Pavor Nocturnus
Artist=Agrypnie
Album=Pavor Nocturnus
Tracknumber=2/9
Year=2018
Genre=Black Metal



Register


Go to the top of the page
  Insert nick Quick quote
+Quote Post
 
Start new topic
Replies (1 - 4)
post Oct 12 2018, 07:40:56
Post #2

Аннигилятор пивА
Group Icon
Group: V.I.P
Posts: 49,504
Releases: 15303
From: Koenigsberg - TILZIT
On Forums: 12 years 4 months
Thanks: 333509 time(s)
Russian Federation


MIRROR
Register


Go to the top of the page
  Insert nick Quick quote
+Quote Post
post Oct 12 2018, 12:48:46
Post #3


***********
Group: Металариец
Posts: 1,606
Releases: 14
From: Казань
On Forums: 9 years 1 month
Thanks: 2037 time(s)
Russian Federation


Иногда по группам успеваешь соскучитЬся. Возможно ты этого пока не осознаешь, но тогда они тотчас напоминают о себе!
Go to the top of the page
  Insert nick Quick quote
+Quote Post
post Oct 12 2018, 14:55:47
Post #4

Leegte
**********
Group: Металариец
Posts: 1,488
Releases: 14
From: Kiovia
On Forums: 6 years 6 months
Thanks: 2094 time(s)
Ukraine


Неделя Agrypnie на форуме объявляется открытой (IMG:style_emoticons/default/smile1.gif)
Go to the top of the page
  Insert nick Quick quote
+Quote Post
post Oct 14 2018, 10:20:38
Post #5

Ъ
**************
Group: Металариец
Posts: 9,223
Releases: 9
On Forums: 9 years 9 months
Thanks: 1762 time(s)
Sweden


Veritas Mutabilis - классный трек, остальные послушать интересно, но оставить в коллекцию желания не возникает.
Go to the top of the page
  Insert nick Quick quote
+Quote Post

Reply to this topicStart new topic
1 User(s) are reading this topic (1 Guests and 0 Anonymous Users)
0 Members:

 



- Lo-Fi Version Support form
Copyrights and abuse reports form
Time is now: 20th October 2018 - 01:12:21