Welcome Guest ( Log In | Register )

> DRH - Thin Ice (2018), Jazz/Progressive Metal
post Oct 12 2018, 06:44:03
Post #1

Аннигилятор пивА
Group Icon
Group: V.I.P
Posts: 52,356
Releases: 16556
From: Koenigsberg - TILZIT
On Forums: 12 years 11 months
Thanks: 360777 time(s)
Russian Federation


(IMG:https://metalarea.org/images/audiocovers/2018_Oct/acov_tid311676_thumb.jpg)

*Artist: DRH
*Album: Thin Ice
*Year: 2018
*Genre: Jazz/Progressive Metal
*Country: France (IMG:https://metalarea.org/forum/style_images/flags/France.png)
*Format: mp3@CBR320kbps
*Size: 88MB

Tracklist:
01. Rift 06:00
02. Fooled 05:38
03. Thin Ice 07:27
04. The Path 07:11
05. Black Chewing Gum (Live) 04:56
06. Smoking Bluffer (Live) 05:44
******************************
Total playing time: 36:56




Extended info
With « Thin Ice », the guys from Lyon, France manipulate the saxophone like a magic wand, creating a sound space that seemed lost since the 60’s. At once Progressive Metal, Jazz and definitely Experimental

Danilo Rodriguez (compositions, arrangements et guitare)
Alexandre Phalippon (Basse)
Rémi Matrat (compositions, Saxophones)
Josselin Hazard (Batterie)




Technical info
(IMG:https://metalarea.org/images/spectrogram/2018_Oct/f1435ec3aa25ebd78573b6b93034366a.png)
Input File: 02 Fooled.mp3
Channels : 2
Sample Rate : 44100
Precision : 16-bit
Duration : 00:05:38.83 = 14942227 samples = 25412 CDDA sectors
File Size : 14.2M
Bit Rate : 336k
Sample Encoding: MPEG audio (layer I, II or III)
Comments :
Title=Fooled
Artist=DRH
Album=Thin Ice
Tracknumber=2/6
Year=2018
Genre=Metal
Discnumber=1/1



Register


Go to the top of the page
  Insert nick Quick quote
+Quote Post
 
Start new topic
Replies (1 - 5)
post Oct 12 2018, 07:43:01
Post #2

Аннигилятор пивА
Group Icon
Group: V.I.P
Posts: 52,356
Releases: 16556
From: Koenigsberg - TILZIT
On Forums: 12 years 11 months
Thanks: 360777 time(s)
Russian Federation


MIRROR
Register


Thanks:
Go to the top of the page
  Insert nick Quick quote
+Quote Post
post Oct 12 2018, 10:59:05
Post #3

Три Литра
***
Group: Завсегдатай
Posts: 296
Releases: 54
From: Rostov-on-Don, Russia
On Forums: 12 years 6 months
Thanks: 559 time(s)
Russian Federation


Шикарно очень!!!
Go to the top of the page
  Insert nick Quick quote
+Quote Post
post Oct 12 2018, 15:28:38
Post #4

Четыре Литра
****
Group: Металариец
Posts: 348
Releases: 1
From: Загорск
On Forums: 7 years 1 day
Thanks: 95 time(s)
Russian Federation


Шикарный релиз! Саксофон звучит просто потрясающи! Благодарю!
Go to the top of the page
  Insert nick Quick quote
+Quote Post
post Oct 14 2018, 16:32:02
Post #5

Два Литра
**
Group: Завсегдатай
Posts: 178
Releases: 0
From: Kiev
On Forums: 10 years 4 months
Thanks: 39 time(s)
Ukraine


Фанам Джона Зорна рекомендуется (IMG:style_emoticons/default/20.gif)
Go to the top of the page
  Insert nick Quick quote
+Quote Post
post Nov 4 2018, 21:11:19
Post #6
BAN
Banned till
Jun 21 2019, 08:50:50



какой нах Dead Can Dance , супер! молодчаги французы!!!



Thanks:
(1) artscald,
Go to the top of the page
  Insert nick Quick quote
+Quote Post

Reply to this topicStart new topic
1 User(s) are reading this topic (1 Guests and 0 Anonymous Users)
0 Members:

 



- Lo-Fi Version Support form
Copyrights and abuse reports form
Time is now: 26th May 2019 - 09:57:11