Welcome Guest ( Log In | Register )

> Vanhelgd - Deimos Sanktuarium (2018), Old School Doom/Death Metal
post Oct 12 2018, 07:55:10
Post #1

Аннигилятор пивА
Group Icon
Group: V.I.P
Posts: 52,356
Releases: 16556
From: Koenigsberg - TILZIT
On Forums: 12 years 11 months
Thanks: 360777 time(s)
Russian Federation


(IMG:https://metalarea.org/images/audiocovers/2018_Oct/acov_tid311678_thumb.jpg)

*Artist: Vanhelgd
*Album: Deimos Sanktuarium
*Year: 2018
*Genre: Old School Doom/Death Metal
*Country: Sweden (IMG:https://metalarea.org/forum/style_images/flags/Sweden.png)
*Format: mp3@CBR320kbps
*Size: 103MB

Tracklist:
1. A Plea For Divine Necromancy 04:11
2. Så förgås Världens Härlighet 05:34
3. Vi föddes I Samma Grav 06:38
4. Profaned Is the Blood Of The Covenant 05:34
5. The Ashes Of Our Defeat 07:24
6. The Silent Observer 07:27
7. Här Finns Ingen Nåd 07:27
******************************
Total playing time: 44:15



Extended info
Jimmy Johansson - Guitars, Vocals (ex-Blump, ex-Ceremonial Execution, ex-Bloodshed Nihil)
Mattias Frisk - Guitars, Vocals (The Jam Session, ex-Blump, ex-Ceremonial Execution)
Jonas Albrektsson - Bass (King of Asgard, Retaliation, ex-Indungeon, ex-Niden Div. 187, ex-Thy Primordial, ex-Bloodshed Nihil, ex-Carcaroht, ex-Ceremonial Execution, ex-Infernal Vengeance (live))
Mathias Westman - Drums (King of Asgard, ex-Souls of Emptiness, ex-Spiritus Sancti, ex-Throne of Heresy)
Guest:
Thomas Sabbathi - Choirs (track 6) (Deadpulse, ex-Bokor, ex-Griftegård, ex-Plague Majestic, Year of the Goat, ex-Dear Mutant, ex-House of Aquarius)
VANHELGD frontman Mattias Frisk (Ghost, Entrapment, Vampire, etc.) once again handling the odiously haunting artwork on “Deimos Sanktuarium”



Technical info
(IMG:https://metalarea.org/images/spectrogram/2018_Oct/46a06d12e7e3f4fd2aac529d78856fc6.png)
Input File: 02. Så förgås världens härlighet.mp3
Channels : 2
Sample Rate : 44100
Precision : 16-bit
Duration : 00:05:34.17 = 14736765 samples = 25062.5 CDDA sectors
File Size : 13.7M
Bit Rate : 327k
Sample Encoding: MPEG audio (layer I, II or III)
Comments :
Title=Så förgås världens härlighet
Artist=Vanhelgd
Album=Deimos Sanktuarium
Tracknumber=2
Year=2018
Genre=Death Metal



Register


Go to the top of the page
  Insert nick Quick quote
+Quote Post
 
Start new topic
Replies (1 - 3)
post Oct 12 2018, 08:12:56
Post #2

Аннигилятор пивА
Group Icon
Group: V.I.P
Posts: 52,356
Releases: 16556
From: Koenigsberg - TILZIT
On Forums: 12 years 11 months
Thanks: 360777 time(s)
Russian Federation


mirror
Register



Go to the top of the page
  Insert nick Quick quote
+Quote Post
post Oct 14 2018, 15:17:35
Post #3

Маньяк
**********
Group: Металариец
Posts: 1,370
Releases: 0
On Forums: 11 years 3 months
Thanks: 561 time(s)
Russian Federation


Хорошая музыка. Мрааачно. От альбома к альбому всё больше и больше нравится.
Go to the top of the page
  Insert nick Quick quote
+Quote Post
post Feb 27 2019, 21:23:13
Post #4

Empty Words
**************
Group: Металариец
Posts: 2,011
Releases: 13
From: Москва
On Forums: 9 years 9 months
Thanks: 2391 time(s)
Russian Federation


С первого раза очень понравилось. Спустя почти полгода — уже меньше. Но всё равно, альбом очень хорош. Мрачный, размеренный, без заштампованности. Не шведятина, или не совсем она. Нащупали они свою тропу, хорошо идут.
Go to the top of the page
  Insert nick Quick quote
+Quote Post

Reply to this topicStart new topic
1 User(s) are reading this topic (1 Guests and 0 Anonymous Users)
0 Members:

 



- Lo-Fi Version Support form
Copyrights and abuse reports form
Time is now: 26th May 2019 - 09:58:07