Welcome Guest ( Log In | Register )

> Releases Upload / Добавление релизов

Добавить релиз тут / Click here to add release
Рекомендованные обменники / Recommended file shares

> My Minds Mine - Passengers Of The Void (2018), Grindcore (D5)
post Oct 12 2018, 12:10:53
Post #1

Serial Uploader
Group Icon
Group: V.I.P
Posts: 33,126
Releases: 31411
From: Lithuania
On Forums: 10 years 4 months
Thanks: 359197 time(s)
Lithuania


(IMG:https://metalarea.org/images/audiocovers/2018_Oct/acov_tid311691_thumb.jpg)

*Artist: My Minds Mine
*Album: Passengers Of The Void
*Year: 2018
*Genre: Grindcore
*Country: Netherlands (IMG:https://metalarea.org/forum/style_images/flags/Netherlands.png)
*Format: mp3@CBR320kbps
*Size: 38MB

Tracklist:
01. Aftermath 01:07
02. Hate Formation 00:58
03. Slave Abuse 01:11
04. The Promised Resurrection 01:02
05. Passenger of the Void 01:00
06. Cocoon of Conform 01:11
07. (They Rather) See Us Dead 01:33
08. Deceptive Attitude 01:26
09. War Corrosion 00:56
10. Nothing but Teeth 01:12
11. Empty Carcass 00:47
12. The Omnipotent God 00:50
13. Rot Away 00:47
14. Faceless Plague 02:58
******************************
Total playing time: 16:58



(IMG:https://metalarea.org/images/youtube.png)

Technical info
(IMG:https://metalarea.org/images/spectrogram/2018_Oct/0dded81b82e3f9762384e5acdb831831.png)
Input File: 02. Hate Formation.mp3
Channels : 2
Sample Rate : 44100
Precision : 16-bit
Duration : 00:00:58.94 = 2599166 samples = 4420.35 CDDA sectors
File Size : 2.52M
Bit Rate : 342k
Sample Encoding: MPEG audio (layer I, II or III)
Comments :
Title=Hate Formation
Artist=My Minds Mine
Album=Passengers of the Void
Tracknumber=2
Year=2018
Discnumber=1



Register


Go to the top of the page
  Insert nick Quick quote
+Quote Post
 
Start new topic
Replies (1 - 1)
post Oct 14 2018, 18:48:57
Post #2

Satan bless you!
**************
Group: Металариец
Posts: 3,275
Releases: 63
From: Москва
On Forums: 10 years 3 months
Thanks: 2819 time(s)
Russian Federation


Интересно, когда-то давно залил сюда тоже эту группу,но по-моему в стиле указал нойз, так она была в неформате, а они оказывается грайнд играют)
Go to the top of the page
  Insert nick Quick quote
+Quote Post

Reply to this topicStart new topic
1 User(s) are reading this topic (1 Guests and 0 Anonymous Users)
0 Members:

 



- Lo-Fi Version Support form
Copyrights and abuse reports form
Time is now: 17th October 2018 - 13:19:02