Welcome Guest ( Log In | Register )

> Oksennus - Älä Luovuta Koskaan [demo] (2018), Death Metal (D)
post Oct 13 2018, 16:32:03
Post #1

Правь статус, ####!111
**************
Group: Металариец
Posts: 3,573
Releases: 3244
From: Одесса
On Forums: 12 years 7 months
Thanks: 34087 time(s)
Ukraine


(IMG:http://metalarea.org/images/audiocovers/2018_Oct/acov_tid311726_thumb.png)

*Artist: Oksennus
*Album: Älä Luovuta Koskaan [demo]
*Year: 2018
*Genre: Death Metal
*Country: Finland (IMG:http://metalarea.org/forum/style_images/flags/Finland.png)
*Format: mp3@CBR320kbps
*Size: 99MB

Tracklist:
1. Kolme vuodenaikaa I 08:34
2. Kolme vuodenaikaa II 08:06
3. Kolme vuodenaikaa III 05:41
4. Heikkous ja mielihyvä I 01:21
5. Heikkous ja mielihyvä II 01:01
6. Heikkous ja mielihyvä III 01:33
7. Heikkous ja mielihyvä IV 01:54
8. Heikkous ja mielihyvä V 01:56
9. Heikkous ja mielihyvä VI 01:33
10. Heikkous ja mielihyvä VII 01:58
11. Heikkous ja mielihyvä VIII 01:50
12. Heikkous ja mielihyvä IX 01:01
13. Heikkous ja mielihyvä X 01:37
14. Heikkous ja mielihyvä XI 01:21
15. Heikkous ja mielihyvä XII 01:35
16. Heikkous ja mielihyvä XIII 01:34
******************************
Total playing time: 42:35



Extended info
flac rip

Line - up:

O.K. - Bass (ex-Ruho (live))
K.K. - Vocals, Guitars (ex-Ruho (live))
V.P. - Drums

(IMG:https://www.metal-archives.com/images/3/5/4/0/3540325008_photo.jpg?1146)


Technical info
(IMG:http://metalarea.org/images/spectrogram/2018_Oct/8526bc0c27adb683f65a32974ea2e6bd.png)
Input File: 01. Kolme vuodenaikaa I.mp3
Channels : 2
Sample Rate : 48000
Precision : 16-bit
Duration : 00:08:34.61 = 24701328 samples ~ 38595.8 CDDA sectors
File Size : 20.6M
Bit Rate : 321k
Sample Encoding: MPEG audio (layer I, II or III)
Comments :
Title=Kolme vuodenaikaa I
Artist=Oksennus
Album=Ala luovuta koskaan (Demo)
Tracknumber=1
Year=2018
Genre=22



Register


Go to the top of the page
  Insert nick Quick quote
+Quote Post
 
Start new topic
Replies (1 - 3)
post Oct 18 2018, 15:59:00
Post #2

Crush! Kill! Destroy!
**************
Group: Металариец
Posts: 5,677
Releases: 15
From: Kaliningrad
On Forums: 13 years 2 months
Thanks: 5380 time(s)
Russian Federation


Очередная грибная шедевра от финский упоротышей. Чуваки круто дОнельзя!
Go to the top of the page
  Insert nick Quick quote
+Quote Post
post Jan 12 2021, 08:40:59
Post #3

Два Литра
**
Group: Завсегдатай
Posts: 118
Releases: 0
On Forums: 1 year 4 months
Thanks: 2 time(s)
United States


Someone reup please? Thanks!
Go to the top of the page
  Insert nick Quick quote
+Quote Post
post Jan 13 2021, 16:03:24
Post #4

Group Icon
Group: S-moderation team
Posts: 18,929
Releases: 1441
From: Zagreb
On Forums: 9 years 11 months
Thanks: 87194 time(s)
Croatia


Register


Thanks:
Go to the top of the page
  Insert nick Quick quote
+Quote Post

Reply to this topicStart new topic
2 User(s) are reading this topic (2 Guests and 0 Anonymous Users)
0 Members:

 



- Lo-Fi Version Support form
Copyrights and abuse reports form
Time is now: 27th January 2021 - 15:30:43