Welcome Guest ( Log In | Register )

 
Reply to this topicStart new topic
> K.F.R - Goat [demo] (2015), Black Metal/Dark Ambient
post Oct 14 2018, 17:21:13
Post #1

Четыре Литра
****
Group: Металариец
Posts: 399
Releases: 79
On Forums: 6 years 7 months
Thanks: 1532 time(s)
Serbia


(IMG:http://metalarea.org/images/audiocovers/nocover.gif)

*Artist: K.F.R
*Album: Goat [demo]
*Year: 2015
*Genre: Black Metal/Dark Ambient
*Country: France (IMG:http://metalarea.org/forum/style_images/flags/France.png)
*Format: mp3@CBR320kbps
*Size: 75MB

Tracklist:
1. Astral Temple Part I 03:31
2. Imago 05:03
3. Bad Dream 04:16
4. You've crossed the line 05:52
5. Goat 03:12
6. Astral Temple Part II 06:42
7. Oraison Funèbre 03:49
******************************
Total playing time: 32:25

Technical info
(IMG:http://metalarea.org/images/spectrogram/2018_Oct/816f0b33dd7ecd00e45de108b3440543.png)
Input File: 03 - Bad Dream.mp3
Channels : 2
Sample Rate : 44100
Precision : 16-bit
Duration : 00:04:16.77 = 11323733 samples = 19258 CDDA sectors
File Size : 10.4M
Bit Rate : 324k
Sample Encoding: MPEG audio (layer I, II or III)
Comments :
Title=Bad Dream
Artist=K.F.R (كافر)
Album=GOAT (demo)
Tracknumber=3
Year=2015



Register


Go to the top of the page
  Insert nick Quick quote
+Quote Post

Reply to this topicStart new topic
1 User(s) are reading this topic (1 Guests and 0 Anonymous Users)
0 Members:

 



- Lo-Fi Version Support form
Copyrights and abuse reports form
Time is now: 7th June 2020 - 03:53:34