Welcome Guest ( Log In | Register )

 
Reply to this topicStart new topic
> K.F.R - Chute [demo] (2016), Black Metal/Dark Ambient
post Oct 14 2018, 17:42:17
Post #1

Четыре Литра
****
Group: Металариец
Posts: 399
Releases: 79
On Forums: 6 years 7 months
Thanks: 1532 time(s)
Serbia


(IMG:http://metalarea.org/images/audiocovers/2018_Oct/acov_tid311758_thumb.jpg)

*Artist: K.F.R
*Album: Chute [demo]
*Year: 2016
*Genre: Black Metal/Dark Ambient
*Country: France (IMG:http://metalarea.org/forum/style_images/flags/France.png)
*Format: mp3@CBR320kbps
*Size: 61MB

Tracklist:
1. I 03:59
2. II 04:22
3. III 06:22
4. IV 07:16
5. V 04:58
******************************
Total playing time: 26:57

Technical info
(IMG:http://metalarea.org/images/spectrogram/2018_Oct/8dbf54acc3fa89ff4e67aff22469aafa.png)
Input File: 03 - III.mp3
Channels : 2
Sample Rate : 44100
Precision : 16-bit
Duration : 00:06:22.72 = 16877864 samples = 28703.9 CDDA sectors
File Size : 15.4M
Bit Rate : 323k
Sample Encoding: MPEG audio (layer I, II or III)
Comments :
Title=III
Artist=K.F.R (كافر)
Album=ChutE (Demo)
Tracknumber=3
Year=2016



Register


Go to the top of the page
  Insert nick Quick quote
+Quote Post

Reply to this topicStart new topic
1 User(s) are reading this topic (1 Guests and 0 Anonymous Users)
0 Members:

 



- Lo-Fi Version Support form
Copyrights and abuse reports form
Time is now: 6th June 2020 - 17:25:33