Welcome Guest ( Log In | Register )

 
Reply to this topicStart new topic
> K.F.R - Ø (2016), Black Metal/Dark Ambient
post Oct 14 2018, 18:05:10
Post #1

Четыре Литра
****
Group: Металариец
Posts: 399
Releases: 79
On Forums: 6 years 7 months
Thanks: 1532 time(s)
Serbia


(IMG:http://metalarea.org/images/audiocovers/nocover.gif)

*Artist: K.F.R
*Album: Ø
*Year: 2016
*Genre: Black Metal/Dark Ambient
*Country: France (IMG:http://metalarea.org/forum/style_images/flags/France.png)
*Format: mp3@CBR320kbps
*Size: 204MB

Tracklist:
1. Vermines! 05:30
2. Abgrund 03:37
3. The Light Will Slightly Shade 04:19
4. Le Roi du poing 04:51
5. Be the Knife 04:33
6. Libera 04:50
7. Puisse ma chair, même morte, se tenir encore debout 05:58
8. The Abode of the Dead 08:07
9. Sirius 06:32
10. Lamentations 03:54
11. There Is No Fear 03:56
12. Mantra 07:20
13. Void 24:08
******************************
Total playing time: 1:27:35

Technical info
(IMG:http://metalarea.org/images/spectrogram/2018_Oct/37790c941175d0e0578ff5cc2289c356.png)
Input File: 13 - Void.mp3
Channels : 2
Sample Rate : 44100
Precision : 16-bit
Duration : 00:24:08.16 = 63863636 samples = 108612 CDDA sectors
File Size : 58.1M
Bit Rate : 321k
Sample Encoding: MPEG audio (layer I, II or III)
Comments :
Title=Void
Artist=K.F.R (كافر)
Album=Ø
Tracknumber=13
Year=2016



Register


Go to the top of the page
  Insert nick Quick quote
+Quote Post

Reply to this topicStart new topic
1 User(s) are reading this topic (1 Guests and 0 Anonymous Users)
0 Members:

 



- Lo-Fi Version Support form
Copyrights and abuse reports form
Time is now: 7th June 2020 - 04:09:05