Welcome Guest ( Log In | Register )

 
Reply to this topicStart new topic
> K.F.R - Hypnotic Black Metal [demo] (2018), Black Metal/Dark Ambient
post Oct 14 2018, 18:17:43
Post #1

Четыре Литра
****
Group: Металариец
Posts: 399
Releases: 79
On Forums: 6 years 7 months
Thanks: 1532 time(s)
Serbia


(IMG:http://metalarea.org/images/audiocovers/2018_Oct/acov_tid311760_thumb.jpg)

*Artist: K.F.R
*Album: Hypnotic Black Metal [demo]
*Year: 2018
*Genre: Black Metal/Dark Ambient
*Country: France (IMG:http://metalarea.org/forum/style_images/flags/France.png)
*Format: mp3@CBR320kbps
*Size: 49MB

Tracklist:
1. Desecrate 04:21
2. Ris Pendant qu'il en est encore Temps 07:14
3. Hypnotic Black Metal 05:21
4. Là où ça sent la Merde 04:45
******************************
Total playing time: 21:41

Technical info
(IMG:http://metalarea.org/images/spectrogram/2018_Oct/3cb1f132e2a7ca934d654b7660cfb6b3.png)
Input File: 01 - Desecrate.mp3
Channels : 2
Sample Rate : 44100
Precision : 16-bit
Duration : 00:04:22.00 = 11554156 samples = 19649.9 CDDA sectors
File Size : 10.6M
Bit Rate : 322k
Sample Encoding: MPEG audio (layer I, II or III)
Comments :
Title=Desecrate
Artist=K.F.R (كافر)
Album=Hypnotic Black Metal
Tracknumber=1
Year=2018



Register


Go to the top of the page
  Insert nick Quick quote
+Quote Post

Reply to this topicStart new topic
1 User(s) are reading this topic (1 Guests and 0 Anonymous Users)
0 Members:

 



- Lo-Fi Version Support form
Copyrights and abuse reports form
Time is now: 6th June 2020 - 19:33:31