Welcome Guest ( Log In | Register )

 
Reply to this topicStart new topic
> K.F.R - Hypnotic Black Metal Part II [demo] (2018), Black Metal/Dark Ambient
post Oct 14 2018, 18:25:03
Post #1

Четыре Литра
****
Group: Металариец
Posts: 399
Releases: 79
On Forums: 6 years 7 months
Thanks: 1532 time(s)
Serbia


(IMG:http://metalarea.org/images/audiocovers/2018_Oct/acov_tid311761_thumb.jpg)

*Artist: K.F.R
*Album: Hypnotic Black Metal Part II [demo]
*Year: 2018
*Genre: Black Metal/Dark Ambient
*Country: France (IMG:http://metalarea.org/forum/style_images/flags/France.png)
*Format: mp3@CBR320kbps
*Size: 33MB

Tracklist:
1. #Death 04:29
2. Hypnotic Black Metal II 04:19
3. Some Past Life 05:46
******************************
Total playing time: 14:34

Technical info
(IMG:http://metalarea.org/images/spectrogram/2018_Oct/da771b744d6553ef7ab5f8b746e60314.png)
Input File: 01 - #Death.mp3
Channels : 2
Sample Rate : 44100
Precision : 16-bit
Duration : 00:04:29.29 = 11875601 samples = 20196.6 CDDA sectors
File Size : 10.8M
Bit Rate : 322k
Sample Encoding: MPEG audio (layer I, II or III)
Comments :
Title=#Death
Artist=K.F.R (كافر)
Album=Hypnotic Black Metal Part II
Tracknumber=1
Year=2018



Register


Go to the top of the page
  Insert nick Quick quote
+Quote Post

Reply to this topicStart new topic
1 User(s) are reading this topic (1 Guests and 0 Anonymous Users)
0 Members:

 



- Lo-Fi Version Support form
Copyrights and abuse reports form
Time is now: 6th June 2020 - 18:14:43