Welcome Guest ( Log In | Register )

 
Reply to this topicStart new topic
> K.F.R - Scriptures Of Death [ep] (2017), Black Metal/Dark Ambient
post Oct 14 2018, 18:36:23
Post #1

Четыре Литра
****
Group: Металариец
Posts: 399
Releases: 79
On Forums: 6 years 7 months
Thanks: 1532 time(s)
Serbia


(IMG:http://metalarea.org/images/audiocovers/2018_Oct/acov_tid311762_thumb.jpg)

*Artist: K.F.R
*Album: Scriptures Of Death [ep]
*Year: 2017
*Genre: Black Metal/Dark Ambient
*Country: France (IMG:http://metalarea.org/forum/style_images/flags/France.png)
*Format: mp3@CBR320kbps
*Size: 38MB

Tracklist:
1. Scriptures of Death 03:24
2. Satan My Master (Bathory cover) 02:28
3. Under the Skin 02:57
4. Be the One 02:40
5. We Will Rise as Flames 04:13
6. Dies Irae 00:58
******************************
Total playing time: 16:40

Technical info
(IMG:http://metalarea.org/images/spectrogram/2018_Oct/07c81165c1717451d0773237cb96a183.png)
Input File: 03 - Under the Skin.mp3
Channels : 2
Sample Rate : 44100
Precision : 16-bit
Duration : 00:02:57.49 = 7827221 samples = 13311.6 CDDA sectors
File Size : 7.15M
Bit Rate : 322k
Sample Encoding: MPEG audio (layer I, II or III)
Comments :
Title=Under the Skin
Artist=K.F.R (كافر)
Album=Scriptures of Death
Tracknumber=3
Year=2017



Register


Go to the top of the page
  Insert nick Quick quote
+Quote Post

Reply to this topicStart new topic
1 User(s) are reading this topic (1 Guests and 0 Anonymous Users)
0 Members:

 



- Lo-Fi Version Support form
Copyrights and abuse reports form
Time is now: 7th June 2020 - 04:56:21