Welcome Guest ( Log In | Register )

> Impaled Offering - The Agony Of Rebirth (2018), Blackened Death Metal/Goregrind
post Oct 15 2018, 05:02:16
Post #1

Serial Uploader
Group Icon
Group: V.I.P
Posts: 35,630
Releases: 33839
From: Lithuania
On Forums: 11 years 1 month
Thanks: 389622 time(s)
Lithuania


(IMG:http://metalarea.org/images/audiocovers/2018_Oct/acov_tid311770_thumb.jpg)

*Artist: Impaled Offering
*Album: The Agony Of Rebirth
*Year: 2018
*Genre: Blackened Death Metal/Goregrind
*Country: United States (IMG:http://metalarea.org/forum/style_images/flags/United%20States.png)
*Format: mp3@CBR320kbps
*Size: 72MB

Tracklist:
01. Intravenous Hatred
02. Crowbar Disfigurement
03. Metempsychosis
04. Cowering Inside the Catacombs
05. Slumbers of Reality
06. Unearth
07. Slavedriven Into Oblivion
08. Meditation Through Flesh
09. The Agony of Rebirth
******************************
Total playing time: 31:07



Technical info
(IMG:http://metalarea.org/images/spectrogram/2018_Oct/e7d745bdf138570372ba7445be5f0580.png)
Input File: 02. Crowbar Disfigurement.mp3
Channels : 2
Sample Rate : 44100
Precision : 16-bit
Duration : 00:04:11.86 = 11107158 samples = 18889.7 CDDA sectors
File Size : 10.1M
Bit Rate : 321k
Sample Encoding: MPEG audio (layer I, II or III)
Comments :
Title=Crowbar Disfigurement
Artist=Impaled Offering
Album=The Agony of Rebirth
Tracknumber=2/9
Year=2018



Register


Go to the top of the page
  Insert nick Quick quote
+Quote Post
 
Start new topic
Replies (1 - 1)
post Oct 15 2018, 07:08:55
Post #2

Morbid Angel
**************
Group: Металариец
Posts: 4,166
Releases: 0
From: Литва г.Клайпеда
On Forums: 12 years 4 months
Thanks: 1773 time(s)
Lithuania




Thanks:
(1) artscald,
Go to the top of the page
  Insert nick Quick quote
+Quote Post

Reply to this topicStart new topic
2 User(s) are reading this topic (2 Guests and 0 Anonymous Users)
0 Members:

 



- Lo-Fi Version Support form
Copyrights and abuse reports form
Time is now: 19th July 2019 - 09:06:25