Welcome Guest ( Log In | Register )

> Undergang - Den Dobbelte Grav [ep] (2018), Death Metal (D)
post Oct 20 2018, 21:54:11
Post #1

Семь Литров
*******
Group: Металариец
Posts: 781
Releases: 19
From: Saint-Petersburg
On Forums: 10 years 2 weeks
Thanks: 1697 time(s)
Russian Federation


(IMG:http://metalarea.org/images/audiocovers/2018_Oct/acov_tid311948_thumb.jpg)

*Artist: Undergang
*Album: Den Dobbelte Grav [ep]
*Year: 2018
*Genre: Death Metal
*Country: Denmark (IMG:http://metalarea.org/forum/style_images/flags/Denmark.png)
*Format: mp3@CBR320kbps
*Size: 26MB

Tracklist:
1. Den dobbelte grav 05:48
2. Powder Burns 04:35
******************************
Total playing time: 10:23

Extended info
"DEN DOBBELTE GRAVE" was recorded in Earhammer Studio with Greg Wilkinson from July 28th till August 2nd 2016 during the same session as "MISANTROPOLOGI"
Mixing and mastering by Greg Wilkinson

Lyrics for "Den dobbelte grav" is written by Benni Bødker, Danish author (and much more) specializing in writing horror stories for the younger audience.
The 7" release of this EP is created by the idea from Benni and build around an anthology book he's written called "Den dobbelte grav" (released November 2018) to which UNDERGANG's David Mikkelsen has provided illustrations. On the side of his book Benni is releasing this 7" EP, both presented by his publishing company Corto in November 2018.
More info on Benni and Corto can be found here (in Danish): www.benniboedker.dk
www.forlagetcorto.dk

Music for "Den dobbelte grav" is written and performed by UNDERGANG
"Powder Burns" was originally written by BOLT THROWER and on this recording made GROSS by UNDERGANG


Technical info
(IMG:http://metalarea.org/images/spectrogram/2018_Oct/bb2ba733e77348c8d9f56f7eb6576381.png)
Input File: UNDERGANG - Den dobbelte Grav - 01 Den dobbelte grav.mp3
Channels : 2
Sample Rate : 44100
Precision : 16-bit
Duration : 00:05:48.55 = 15370835 samples = 26140.9 CDDA sectors
File Size : 14.1M
Bit Rate : 323k
Sample Encoding: MPEG audio (layer I, II or III)
Comments :
Title=Den dobbelte grav
Artist=UNDERGANG
Album=Den dobbelte Grav
Tracknumber=1
Year=2018



Register


Go to the top of the page
  Insert nick Quick quote
+Quote Post
 
Start new topic
Replies (1 - 2)
post Oct 21 2018, 12:52:46
Post #2

hearer & reader
**************
Group: Металариец
Posts: 8,045
Releases: 104
From: Moscow
On Forums: 12 years 2 weeks
Thanks: 7527 time(s)
Russian Federation


NYP -
Go to the top of the page
  Insert nick Quick quote
+Quote Post
post Oct 22 2018, 07:11:11
Post #3

De Mysteriis Dom Sathanas
**************
Group: Металариец
Posts: 3,642
Releases: 63
From: Doom
On Forums: 11 years 2 months
Thanks: 3067 time(s)
Russian Federation


Ожидал большего, а миник какой-то невзрачный получился
Go to the top of the page
  Insert nick Quick quote
+Quote Post

Reply to this topicStart new topic
2 User(s) are reading this topic (2 Guests and 0 Anonymous Users)
0 Members:

 



- Lo-Fi Version Support form
Copyrights and abuse reports form
Time is now: 21st September 2019 - 16:49:58