Welcome Guest ( Log In | Register )

> Onlihtan - The Sentinel (2018), Progressive/Atmospheric Black Metal
post Oct 26 2018, 00:25:13
Post #1

Serial Uploader
Group Icon
Group: V.I.P
Posts: 37,136
Releases: 35320
From: Lithuania
On Forums: 11 years 11 months
Thanks: 419631 time(s)
Lithuania


(IMG:http://metalarea.org/images/audiocovers/2018_Oct/acov_tid312183_thumb.jpg)

*Artist: Onlihtan
*Album: The Sentinel
*Year: 2018
*Genre: Progressive/Atmospheric Black Metal
*Country: Unknown (IMG:http://metalarea.org/forum/style_images/flags/Unknown.png)
*Format: mp3@CBR320kbps
*Size: 92MB

Tracklist:
01. I At the Forest's Edge
02. II Beyond the Clearing (The Unforeseen Sacrament)
03. III Evocation
04. IV The Hands That Corrupt
05. V Unrelenting
06. VI Here I Shall Dwell (To Anguish for Eternity)
******************************
Total playing time: 39:55



Technical info
(IMG:http://metalarea.org/images/spectrogram/2018_Oct/2f16712bbbd8446fcc347c75a9a24fe5.png)
Input File: 02. II Beyond the Clearing (The Unforeseen Sacrament).mp3
Channels : 2
Sample Rate : 44100
Precision : 16-bit
Duration : 00:07:12.98 = 19094418 samples = 32473.5 CDDA sectors
File Size : 17.4M
Bit Rate : 321k
Sample Encoding: MPEG audio (layer I, II or III)
Comments :
Title=II: Beyond the Clearing (The Unforeseen Sacrament)
Artist=Onlihtan
Album=The Sentinel
Tracknumber=2/6
Year=2018



Register


Go to the top of the page
  Insert nick Quick quote
+Quote Post
 
Start new topic
Replies (1 - 3)
post Oct 26 2018, 14:41:38
Post #2

Два Литра
**
Group: Завсегдатай
Posts: 182
Releases: 0
On Forums: 6 years 2 months
Thanks: 58 time(s)
Unknown


Mirror?


Thanks:
(1) Ostinato,
Go to the top of the page
  Insert nick Quick quote
+Quote Post
post Oct 28 2018, 06:33:30
Post #3

Аннигилятор пивА
Group Icon
Group: V.I.P
Posts: 52,360
Releases: 16550
From: Koenigsberg - TILZIT
On Forums: 14 years 1 week
Thanks: 365295 time(s)
Russian Federation


Страна: UK
320/91MB
Register


Thanks:
Go to the top of the page
  Insert nick Quick quote
+Quote Post
post Nov 3 2018, 23:37:47
Post #4

Правь статус, ####!111
**************
Group: Металариец
Posts: 2,459
Releases: 11
From: Canada
On Forums: 12 years 11 months
Thanks: 1639 time(s)
Canada




Thanks:
Go to the top of the page
  Insert nick Quick quote
+Quote Post

Reply to this topicStart new topic
2 User(s) are reading this topic (2 Guests and 0 Anonymous Users)
0 Members:

 



- Lo-Fi Version Support form
Copyrights and abuse reports form
Time is now: 5th June 2020 - 20:57:49