Welcome Guest ( Log In | Register )

> Einherjer - Mine Våpen Mine Ord [single] (2018), Viking Metal (D)
post Oct 28 2018, 15:36:22
Post #1

Аннигилятор пивА
Group Icon
Group: V.I.P
Posts: 52,360
Releases: 16551
From: Koenigsberg - TILZIT
On Forums: 13 years 8 months
Thanks: 364141 time(s)
Russian Federation


(IMG:https://metalarea.org/images/audiocovers/2018_Oct/acov_tid312266_thumb.jpg)

*Artist: Einherjer
*Album: Mine Våpen Mine Ord [single]
*Year: 2018
*Genre: Viking Metal
*Country: Norway (IMG:https://metalarea.org/forum/style_images/flags/Norway.png)
*Format: mp3@CBR320kbps
*Size: 9MB

Tracklist:
1. Mine Våpen Mine Ord 03:59
******************************
Total playing time: 3:59




Extended info


Technical info
(IMG:https://metalarea.org/images/spectrogram/2018_Oct/b5818bfd7a46bec472b7b89c0fd73a27.png)
Input File: 01-einherjer-mine_vapen_mine_ord-dd33b8df.mp3
Channels : 2
Sample Rate : 44100
Precision : 16-bit
Duration : 00:03:59.95 = 10581839 samples = 17996.3 CDDA sectors
File Size : 9.68M
Bit Rate : 323k
Sample Encoding: MPEG audio (layer I, II or III)
Comments :
Title=Mine Våpen Mine Ord
Artist=Einherjer
Album=Mine Våpen Mine Ord
Tracknumber=1/1
Year=2018
Genre=Metal



Register


Go to the top of the page
  Insert nick Quick quote
+Quote Post
 
Start new topic
Replies (1 - 5)
post Oct 29 2018, 12:29:17
Post #2

железный нечеловек
**********
Group: Металариец
Posts: 1,248
Releases: 3
From: Уфа
On Forums: 10 years 9 months
Thanks: 432 time(s)
Russian Federation


Неплохо
Go to the top of the page
  Insert nick Quick quote
+Quote Post
post Oct 29 2018, 13:35:00
Post #3

Девять Литров
*********
Group: Металариец
Posts: 919
Releases: 0
From: Харьков
On Forums: 11 years 11 months
Thanks: 752 time(s)
Ukraine


Лучшая из трех синглов.
Go to the top of the page
  Insert nick Quick quote
+Quote Post
post Oct 29 2018, 18:00:56
Post #4

Маньяк
**********
Group: Металариец
Posts: 1,279
Releases: 0
From: Russian Federation - St.Petersburg
On Forums: 10 years 11 months
Thanks: 308 time(s)
Russian Federation


ЦИТАТА(Nattfodd @ Oct 29 2018, 15:35:00) *
Лучшая из трех синглов.

Да уж, точно, эта тема самая мелодичная и слушается на одном дыхании! (IMG:style_emoticons/default/dwarf-1.gif) (IMG:style_emoticons/default/27.gif)
Go to the top of the page
  Insert nick Quick quote
+Quote Post
post Oct 31 2018, 13:08:03
Post #5

mArdAk666
**********
Group: Металариец
Posts: 1,087
Releases: 0
From: Deutschland
On Forums: 9 years 8 months
Thanks: 278 time(s)
Germany


9.11 новый полноформатник, запасаемся попкорном.


Thanks:
Go to the top of the page
  Insert nick Quick quote
+Quote Post
post Dec 4 2018, 22:51:56
Post #6

Маньяк
**********
Group: Металариец
Posts: 1,225
Releases: 92
On Forums: 6 years 4 months
Thanks: 2648 time(s)
Unknown


Added the VBR version of the 7" Single with the Motorhead cover "Deaf Forever"
Register



Go to the top of the page
  Insert nick Quick quote
+Quote Post

Reply to this topicStart new topic
2 User(s) are reading this topic (2 Guests and 0 Anonymous Users)
0 Members:

 



- Lo-Fi Version Support form
Copyrights and abuse reports form
Time is now: 18th February 2020 - 11:37:23