Welcome Guest ( Log In | Register )

> Hekata - Ruin (2018), Death Metal/Blackened Crust
post Oct 30 2018, 17:30:52
Post #1

Правь статус, ####!111
**************
Group: Металариец
Posts: 15,699
Releases: 10662
From: Г.Харьков
On Forums: 6 years 8 months
Thanks: 177429 time(s)
Unknown


(IMG:http://metalarea.org/images/audiocovers/2018_Oct/acov_tid312358_thumb.jpg)

*Artist: Hekata
*Album: Ruin
*Year: 2018
*Genre: Death Metal/Blackened Crust
*Country: Russian Federation (IMG:http://metalarea.org/forum/style_images/flags/Russian%20Federation.png)
*Format: mp3@CBR320kbps
*Size: 60MB

Tracklist:
1. Ruin 05:16
2. Psalm 03:29
3. Savant 03:58
4. Eternal 03:37
5. Skyforge 04:53
6. Liar 04:12
******************************
Total playing time: 25:25

Preview 1



Extended info
k Bass (2015-present)
v Drums (2015-present)
j Guitars (2015-present)
B Guitars (2015-present)
r Vocals (2015-present)








Technical info
(IMG:http://metalarea.org/images/spectrogram/2018_Oct/1586c7c9b36e6244f8ba1e173b3bd15f.png)
Input File: 03 - Savant.mp3
Channels : 2
Sample Rate : 44100
Precision : 16-bit
Duration : 00:03:58.66 = 10525038 samples = 17899.7 CDDA sectors
File Size : 9.55M
Bit Rate : 320k
Sample Encoding: MPEG audio (layer I, II or III)
Comments :
Title=Savant
Artist=Hekata
Album=Ruin
Tracknumber=3
Year=2018
Genre=Death Metal



Register


Go to the top of the page
  Insert nick Quick quote
+Quote Post
 
Start new topic
Replies (1 - 1)
post Jan 11 2019, 18:42:12
Post #2

Empty Words
***********
Group: Металариец
Posts: 1,984
Releases: 13
From: Москва
On Forums: 9 years 5 months
Thanks: 2323 time(s)
Russian Federation


Черт его знает... Сыграно и записано мощно и профессионально. Но всё время не покидает ощущение тотальной спижжености материала (IMG:style_emoticons/default/hmm.gif) Что-то из ранних Dark Funeral и Vader приходит на ум.
Go to the top of the page
  Insert nick Quick quote
+Quote Post

Reply to this topicStart new topic
2 User(s) are reading this topic (2 Guests and 0 Anonymous Users)
0 Members:

 



- Lo-Fi Version Support form
Copyrights and abuse reports form
Time is now: 20th January 2019 - 08:03:17