Welcome Guest ( Log In | Register )

> Conjure - Releasing The Mighty Conjure (2018), Old School Thrash/Speed Metal (D4)
post Nov 1 2018, 07:11:03
Post #1

Правь статус, ####!111
**************
Group: Металариец
Posts: 28,174
Releases: 20563
From: Г.Харьков
On Forums: 9 years 6 months
Thanks: 418754 time(s)
Unknown


(IMG:http://metalarea.org/images/audiocovers/2018_Nov/acov_tid312444_thumb.jpg)

*Artist: Conjure
*Album: Releasing The Mighty Conjure
*Year: 2018
*Genre: Old School Thrash/Speed Metal
*Country: Ecuador (IMG:http://metalarea.org/forum/style_images/flags/Ecuador.png)
*Format: mp3@CBR320kbps
*Size: 107MB

Tracklist:
1. The Majesty of Power 02:13 instrumental
2. Devilish Beast 05:33
3. Brigadas de la muerte 03:05
4. Speed Metal Legacy 05:39
5. Abduction 04:42
6. Metal Impaler 04:47
7. Beyond (The Gates ov Hell) 08:06
8. Placer y velocidad 04:00
9. Witches Dance 06:33
10. Embrace of Death 02:16 instrumental
******************************
Total playing time: 46:54




Extended info
Otreum Drums (2013), Guitars, Vocals (2013-present)
See also: Alcoholic Rites, Angel Negro
Insane Blast Beat Drums (2013-present)
See also: Alcoholic Rites, Angel Negro, ex-Extreme Attack
The Phantom Guitars (rhythm) (2013-present)
See also: Angel Negro, Lady Killer
Hellion Drunken Vocals (2013-present)
See also: ex-Trial by Fire
Riffer Wind instruments (2013-present)
Death Fingers Bass Guitar (2016-present)


Technical info
(IMG:http://metalarea.org/images/spectrogram/2018_Nov/d0aa507d9829641389799cf609bef3fd.png)
Input File: 03 - Brigadas de la muerte.mp3
Channels : 2
Sample Rate : 44100
Precision : 16-bit
Duration : 00:03:04.18 = 8122162 samples = 13813.2 CDDA sectors
File Size : 7.37M
Bit Rate : 320k
Sample Encoding: MPEG audio (layer I, II or III)
Comments :
Title=Brigadas de la muerte
Artist=Conjure
Album=Releasing the Mighty Conjure
Tracknumber=3
Year=2018
Genre=Thrash Metal
Discnumber=1/1



Register


Go to the top of the page
  Insert nick Quick quote
+Quote Post
 
Start new topic
Replies (1 - 4)
post Nov 1 2018, 12:15:49
Post #2

Правь статус, ####!111
**************
Group: Металариец
Posts: 28,174
Releases: 20563
From: Г.Харьков
On Forums: 9 years 6 months
Thanks: 418754 time(s)
Unknown


Cloud Mail 320
Register


Go to the top of the page
  Insert nick Quick quote
+Quote Post
post Nov 1 2018, 22:02:14
Post #3

Маньяк
**********
Group: Металариец
Posts: 1,413
Releases: 5
From: Нью-Васюки
On Forums: 15 years 6 months
Thanks: 422 time(s)
Russian Federation


Очень неплохая группа и записаны хорошо.


Thanks:
Go to the top of the page
  Insert nick Quick quote
+Quote Post
post Nov 2 2018, 08:28:00
Post #4

Dr.
**************
Group: Металариец
Posts: 5,334
Releases: 0
From: Primorye.ru
On Forums: 10 years 8 months
Thanks: 1109 time(s)
Russian Federation


Местами быстрый, местами простой и ритмичный альбом. Все неплохо как внутри, так и снаружи.


Thanks:
Go to the top of the page
  Insert nick Quick quote
+Quote Post
post Nov 2 2018, 16:54:23
Post #5

Common dweller of hell
**************
Group: Металариец
Posts: 4,121
Releases: 12
From: Dnipro
On Forums: 13 years 4 months
Thanks: 1612 time(s)
Ukraine


ЦИТАТА(Diflock @ Nov 2 2018, 09:28:00) *
Все неплохо как внутри, так и снаружи.

Только с языком беда (IMG:style_emoticons/default/1488.gif)
Go to the top of the page
  Insert nick Quick quote
+Quote Post

Reply to this topicStart new topic
2 User(s) are reading this topic (2 Guests and 0 Anonymous Users)
0 Members:

 



- Lo-Fi Version Support form
Copyrights and abuse reports form
Time is now: 4th December 2021 - 11:52:44