Welcome Guest ( Log In | Register )

> Forum rules / Правила раздела

Here go releases which can't go to New releases forums due lack of information, stolen links or incorrect data and just founded in other sites links with minimum info. Reissue of this releases through Add release form with added/corrected data, info and own links highly welcomed.

Сюда уходят релизы, не пропущенные в основные релизные форумы по причинам отсутствия, недостаточности или неверности/некорректности сопровождающей информации, содержащие ссылки, указывающие на файлы, залитые не автором темы, а так же просто найденные где-то ссылки с минимумом информации. Переоформление тем отсюда через форму Добавления релиза с перезаливкой ссылок крайне приветствуется.

> 9Slug - 9Slug III Walls Of Hypocrisy (2018), Groove Metal
post Nov 3 2018, 19:31:36
Post #1

Девять Литров
*********
Group: Металариец
Posts: 940
Releases: 52
On Forums: 12 years 2 weeks
Thanks: 805 time(s)
Ukraine


(IMG:http://metalarea.org/images/audiocovers/2018_Nov/acov_tid312584_thumb.jpg)

*Artist: 9Slug
*Album: 9Slug III Walls Of Hypocrisy
*Year: 2018
*Genre: Groove Metal
*Country: United States (IMG:http://metalarea.org/forum/style_images/flags/United%20States.png)
*Format: mp3@CBR320kbps
*Size: 66MB

Tracklist:
Walls of Hypocrisy 3:51
Conquer the Fear 2:56
Echoes of Resolve 3:59
Six Foot Shallow 4:37
Bipolar 2:56
Pale Horse 5:16
Southern Skies 4:48
Cars 1:17
******************************
Total playing time: 29:40

Preview 1

Extended info
Jaide Templet — Vocals
David Boley — Guitars
Scarlett — Bass
Kelly Davis — Drums


Technical info
(IMG:http://metalarea.org/images/spectrogram/2018_Nov/85ad281d8bae2d0cdb45fec77fbdd45a.png)
Input File: 01. Walls of Hypocrisy.mp3
Channels : 2
Sample Rate : 44100
Precision : 16-bit
Duration : 00:03:51.57 = 10212017 samples = 17367.4 CDDA sectors
File Size : 9.34M
Bit Rate : 323k
Sample Encoding: MPEG audio (layer I, II or III)
Comments :
Title=Walls of Hypocrisy
Artist=9slug
Album=9slug III: Walls of Hypocrisy
Tracknumber=1
Year=2018
Discnumber=1



Register


Thanks:
Go to the top of the page
  Insert nick Quick quote
+Quote Post
 
Start new topic
Replies (1 - 4)
post Nov 4 2018, 12:44:16
Post #2

Девять Литров
*********
Group: Металариец
Posts: 940
Releases: 52
On Forums: 12 years 2 weeks
Thanks: 805 time(s)
Ukraine


Объясните, почему релиз попал сюда?
Go to the top of the page
  Insert nick Quick quote
+Quote Post
post Nov 4 2018, 14:07:11
Post #3

Девять Литров
*********
Group: Металариец
Posts: 940
Releases: 52
On Forums: 12 years 2 weeks
Thanks: 805 time(s)
Ukraine


Я ж вроде-бы все правильно оформил. (IMG:style_emoticons/default/redp.gif)
Go to the top of the page
  Insert nick Quick quote
+Quote Post
post Nov 6 2018, 21:51:59
Post #4

Девять Литров
*********
Group: Металариец
Posts: 940
Releases: 52
On Forums: 12 years 2 weeks
Thanks: 805 time(s)
Ukraine


Может кто-то из модераторов все-таки спустится с небес и ответит на мой вопрос? Четверым в ЛС написал. (IMG:style_emoticons/default/13.gif) (IMG:style_emoticons/default/13.gif)
Go to the top of the page
  Insert nick Quick quote
+Quote Post
post Dec 23 2018, 09:54:44
Post #5
BAN
Banned till
Apr 22 2019, 17:35:54



а нумерацию треков Пушкин будет ставить?

9Slug III: Walls Of Hypocrisy

вроде, в остальном всё нормально
Go to the top of the page
  Insert nick Quick quote
+Quote Post

Reply to this topicStart new topic
1 User(s) are reading this topic (1 Guests and 0 Anonymous Users)
0 Members:

 



- Lo-Fi Version Support form
Copyrights and abuse reports form
Time is now: 25th March 2019 - 11:20:21