Welcome Guest ( Log In | Register )

> Releases Upload / Добавление релизов

Добавить релиз тут / Click here to add release
Рекомендованные обменники / Recommended file shares

> Whiskey & Funeral - Jesus Is Guilty (2018), Old School Death Metal
post Nov 7 2018, 14:51:24
Post #1

Аннигилятор пивА
Group Icon
Group: V.I.P
Posts: 50,415
Releases: 15653
From: Koenigsberg - TILZIT
On Forums: 12 years 5 months
Thanks: 340153 time(s)
Russian Federation


(IMG:https://metalarea.org/images/audiocovers/2018_Nov/acov_tid312697_thumb.jpg)

*Artist: Whiskey & Funeral
*Album: Jesus Is Guilty
*Year: 2018
*Genre: Old School Death Metal
*Country: Italy (IMG:https://metalarea.org/forum/style_images/flags/Italy.png)
*Format: mp3@VBR304kbps
*Size: 76MB

Tracklist:
1. Afterlife 04:03
2. King of Flesh 03:55
3. Laceration 04:24
4. We Hate You 04:29
5. Norimberga 04:41
6. Violent Explosion 04:22
7. Funeral Witch 04:22
8. Cannibalism 03:38
******************************
Total playing time: 33:54



Extended info
The Italian band WHISKEY & FUNERAL strike with a ferocious display of brutal Death Metal. This third album contains 8 devastating tracks evoking the Old School way.
Riffs burn like hellfire and drums drive at break-neck speed while extreme vocal screams incarnates rotten paroxisms…

Stefano Montagna - Bass (2005-2008), Guitars (2008-2009), Guitars, Vocals (2009-present) See also: Spectral Forest, ex-Ebola, ex-Omicron
Maurizio Montagna - Drums (2005-present) See also: Spectral Forest, ex-Ebola, ex-Omicron, ex-Buffalo Grillz, ex-Hideous Divinity, ex-VII Arcano
Damiano Bracci - Bass (2014-present) See also: Devangelic
Mattia Maiorino - Guitars (2014-present)


Technical info
(IMG:https://metalarea.org/images/spectrogram/2018_Nov/87f802adc9aaec56e047d11a303bb3bf.png)
Input File: 02. King of Flesh.mp3
Channels : 2
Sample Rate : 44100
Precision : 16-bit
Duration : 00:03:55.73 = 10395605 samples = 17679.6 CDDA sectors
File Size : 8.90M
Bit Rate : 302k
Sample Encoding: MPEG audio (layer I, II or III)
Comments :
Title=King of Flesh
Artist=Whiskey & Funeral
Album=Jesus Is Guilty
Tracknumber=2/8
Year=2018
Genre=Death Metal
Discnumber=1/1



Register


Go to the top of the page
  Insert nick Quick quote
+Quote Post
 
Start new topic
Replies (1 - 7)
post Nov 8 2018, 06:53:17
Post #2

Аннигилятор пивА
Group Icon
Group: V.I.P
Posts: 50,415
Releases: 15653
From: Koenigsberg - TILZIT
On Forums: 12 years 5 months
Thanks: 340153 time(s)
Russian Federation


mirror
Register



Thanks:
Go to the top of the page
  Insert nick Quick quote
+Quote Post
post Nov 8 2018, 08:04:52
Post #3

hearer & reader
**************
Group: Металариец
Posts: 7,141
Releases: 92
From: Moscow
On Forums: 11 years 2 months
Thanks: 6792 time(s)
Russian Federation


Приблэкованный дес, типовой проект. Звучит приятно.
Go to the top of the page
  Insert nick Quick quote
+Quote Post
post Nov 8 2018, 08:31:19
Post #4

Микроманьяк
***********
Group: Металариец
Posts: 1,889
Releases: 11
From: Київ
On Forums: 12 years 9 months
Thanks: 909 time(s)
Ukraine


ЦИТАТА(AHBAnep @ Nov 8 2018, 09:04:52) *
Приблэкованный дес

вначале прочёл как "приблэкованый денс", аж рука потянулась скачать...
Go to the top of the page
  Insert nick Quick quote
+Quote Post
post Nov 8 2018, 08:40:02
Post #5

Мегаманьяк
***********
Group: Металариец
Posts: 1,635
Releases: 0
From: Dnipro
On Forums: 10 years 4 months
Thanks: 428 time(s)
Ukraine


Стандартный, но качественный Death Metal, без каких либо излишеств, с элементами олдскула.
Go to the top of the page
  Insert nick Quick quote
+Quote Post
post Nov 8 2018, 10:52:41
Post #6

Аннигилятор пивА
Group Icon
Group: V.I.P
Posts: 50,415
Releases: 15653
From: Koenigsberg - TILZIT
On Forums: 12 years 5 months
Thanks: 340153 time(s)
Russian Federation


я бы сказал отличный причерненный воршип злого дисайда


Thanks:
Go to the top of the page
  Insert nick Quick quote
+Quote Post
post Nov 8 2018, 23:21:08
Post #7

Crush The Enemies
**************
Group: Металариец
Posts: 4,152
Releases: 0
From: Moscow
On Forums: 9 years 2 months
Thanks: 2242 time(s)
Russian Federation


ЦИТАТА(aesteticvice @ Nov 8 2018, 13:52:41) *
я бы сказал отличный причерненный воршип злого дисайда

Тоже сразу услышал Детсадовские пляски в общей подаче материала.

P.S Ну вот видишь,в каких-то местах уХное восприятие у нас совпадает - не только блУдбатом довольствуюсь (IMG:style_emoticons/default/1488.gif)

P.S Альбом - КРАСАВА! (IMG:style_emoticons/default/dwarf-1.gif) (IMG:style_emoticons/default/dwarf-1.gif) (IMG:style_emoticons/default/dwarf-1.gif)


Thanks:
Go to the top of the page
  Insert nick Quick quote
+Quote Post
post Nov 8 2018, 23:24:04
Post #8

Правь статус, ####!111
**************
Group: Металариец
Posts: 34,636
Releases: 504
On Forums: 9 years 5 months
Thanks: 26726 time(s)
Russian Federation


ЦИТАТА(randyhermit @ Nov 8 2018, 11:31:19) *
"приблэкованый денс"


Это вам, мил человек, к Анал Натраху надобна (IMG:style_emoticons/default/25.gif)
Go to the top of the page
  Insert nick Quick quote
+Quote Post

Reply to this topicStart new topic
2 User(s) are reading this topic (2 Guests and 0 Anonymous Users)
0 Members:

 



- Lo-Fi Version Support form
Copyrights and abuse reports form
Time is now: 19th November 2018 - 23:47:01