Welcome Guest ( Log In | Register )

> Releases Upload / Добавление релизов

Добавить релиз тут / Click here to add release
Рекомендованные обменники / Recommended file shares

> Psalms Of Silence - In Silence There Is Truth (2018), Thrash/Heavy Metal
post Nov 8 2018, 04:32:09
Post #1

Serial Uploader
Group Icon
Group: V.I.P
Posts: 33,297
Releases: 31568
From: Lithuania
On Forums: 10 years 5 months
Thanks: 360707 time(s)
Lithuania


(IMG:http://metalarea.org/images/audiocovers/2018_Nov/acov_tid312710_thumb.jpg)

*Artist: Psalms Of Silence
*Album: In Silence There Is Truth
*Year: 2018
*Genre: Thrash/Heavy Metal
*Country: United States (IMG:http://metalarea.org/forum/style_images/flags/United%20States.png)
*Format: mp3@CBR320kbps
*Size: 121MB

Tracklist:
01. Road to Oblivion
02. Black Plague
03. Steel Dragons
04. Prophet of False Hope
05. ... A Lion Among Sheep
06. Empire
07. Under the Whip, Pt. 1
08. Horizon
09. Centurion
10. Under the Whip, Pt. 2
******************************
Total playing time: 52:44



Technical info
(IMG:http://metalarea.org/images/spectrogram/2018_Nov/af7ae2ea91b9e5a7c9ff3b2ed5a55ed9.png)
Input File: 02. Black Plague.mp3
Channels : 2
Sample Rate : 44100
Precision : 16-bit
Duration : 00:03:59.04 = 10541488 samples = 17927.7 CDDA sectors
File Size : 9.60M
Bit Rate : 321k
Sample Encoding: MPEG audio (layer I, II or III)
Comments :
Title=Black Plague
Artist=Psalms of Silence
Album=In Silence There Is Truth
Tracknumber=2/10
Year=2018



Register


Go to the top of the page
  Insert nick Quick quote
+Quote Post
 
Start new topic
Replies (1 - 1)
post Nov 8 2018, 12:59:05
Post #2

hearer & reader
**************
Group: Металариец
Posts: 7,141
Releases: 92
From: Moscow
On Forums: 11 years 2 months
Thanks: 6792 time(s)
Russian Federation



Groove


Go to the top of the page
  Insert nick Quick quote
+Quote Post

Reply to this topicStart new topic
1 User(s) are reading this topic (1 Guests and 0 Anonymous Users)
0 Members:

 



- Lo-Fi Version Support form
Copyrights and abuse reports form
Time is now: 19th November 2018 - 23:40:49