Welcome Guest ( Log In | Register )

> Releases Upload / Добавление релизов

Добавить релиз тут / Click here to add release
Рекомендованные обменники / Recommended file shares

> Mästürbätör - Mob Town (2018), Crossover/Thrash Metal
post Nov 8 2018, 09:48:49
Post #1

Аннигилятор пивА
Group Icon
Group: V.I.P
Posts: 50,415
Releases: 15653
From: Koenigsberg - TILZIT
On Forums: 12 years 5 months
Thanks: 340138 time(s)
Russian Federation


(IMG:https://metalarea.org/images/audiocovers/2018_Nov/acov_tid312712_thumb.jpg)

*Artist: Mästürbätör
*Album: Mob Town
*Year: 2018
*Genre: Crossover/Thrash Metal
*Country: Belgium (IMG:https://metalarea.org/forum/style_images/flags/Belgium.png)
*Format: mp3@CBR320kbps
*Size: 62MB

Tracklist:
1. Intro
2. Definition of Crossover
3. Authority Abuse
4. Mentally Vexed
5. Snitch Bitch
6. Be Wise
7. Mob Town
8. Hipster (feat. 10.000 Meta's)
******************************
Total playing time: 26:36



Extended info
Arno Willemsen - Vocals
Miklos De Vos - Rythm Guitar
Kasper Van Ponseele - Lead Guitar
Pieter De Ridder - Drums
Danté Declercq - Bass Guitar



Technical info
(IMG:https://metalarea.org/images/spectrogram/2018_Nov/cfe509d48147392d0e0bb1993e1adb83.png)
Input File: 02.Definition of Crossover.mp3
Channels : 2
Sample Rate : 44100
Precision : 16-bit
Duration : 00:04:07.18 = 10900550 samples = 18538.4 CDDA sectors
File Size : 10.1M
Bit Rate : 328k
Sample Encoding: MPEG audio (layer I, II or III)
Comments :
Title=Definition of Crossover
Artist=Mästürbätör
Album=Mob Town
Tracknumber=2
Year=2018
Genre=Thrash Metal



Register


Go to the top of the page
  Insert nick Quick quote
+Quote Post
 
Start new topic
Replies (1 - 4)
post Nov 14 2018, 21:06:40
Post #2

MDM-Thrash Metal
**************
Group: Металариец
Posts: 7,245
Releases: 422
From: Одесса
On Forums: 11 years 3 months
Thanks: 13780 time(s)
Ukraine


Капец, вместо вокального исполнения - какое то гавканье...
Go to the top of the page
  Insert nick Quick quote
+Quote Post
post Nov 14 2018, 21:52:14
Post #3

Group: Дух
Posts: 9
Releases: 0
From: Москва
On Forums: 6 days 4 hours
Thanks: 0 time(s)
Russian Federation


https://www.youtube.com/watch?v=chQbpGAJ8Ik

Не, не умею ссылки с ютуба вставлять. Ну да ладно. Там их ипиха Mästürbätör - Negative Attitude FULL EP называется, кто захочет - найдёт. Зашибись кроссовер. Альбом не слушал, потому что не могу распаковать архив. Я тупой. Помогите!
Go to the top of the page
  Insert nick Quick quote
+Quote Post
post Nov 14 2018, 22:02:44
Post #4

Group: Дух
Posts: 9
Releases: 0
From: Москва
On Forums: 6 days 4 hours
Thanks: 0 time(s)
Russian Federation


Распаковал севен-зипом. Сейчас послушаем. Ещё бы ссылки с ютуба вставлять научиться.
Go to the top of the page
  Insert nick Quick quote
+Quote Post
post Nov 14 2018, 22:37:00
Post #5

Group: Дух
Posts: 9
Releases: 0
From: Москва
On Forums: 6 days 4 hours
Thanks: 0 time(s)
Russian Federation


Послушал - понравилось. Нормальный вокал. Это ж кроссовер, притом с креном к хардкору. 60% хардкор, 40% трэш.

Умри, [мат->бан] хипстер! (знак копирайта)

В оригинале было "f*cking", я написал "ср*ный". Если кому интересно.
Go to the top of the page
  Insert nick Quick quote
+Quote Post

Reply to this topicStart new topic
1 User(s) are reading this topic (1 Guests and 0 Anonymous Users)
0 Members:

 



- Lo-Fi Version Support form
Copyrights and abuse reports form
Time is now: 19th November 2018 - 22:35:00