Welcome Guest ( Log In | Register )

> Releases Upload / Добавление релизов

Добавить релиз тут / Click here to add release
Рекомендованные обменники / Recommended file shares

 
Reply to this topicStart new topic
> Braves Face The Devil - Black Wolf [ep] (2015), Stoner Metal
post Nov 8 2018, 10:21:35
Post #1

Три Литра
***
Group: Завсегдатай
Posts: 220
Releases: 90
From: Helvetia
On Forums: 5 years 9 months
Thanks: 1414 time(s)
Switzerland


(IMG:https://metalarea.org/images/audiocovers/2018_Nov/acov_tid312713_thumb.jpg)

*Artist: Braves Face The Devil
*Album: Black Wolf [ep]
*Year: 2015
*Genre: Stoner Metal
*Country: Brazil (IMG:https://metalarea.org/forum/style_images/flags/Brazil.png)
*Format: mp3@CBR320kbps
*Size: 62MB

Tracklist:
1. Born to Fight 06:57
2. I'm the Executioner 04:19
3. Black Wolf 06:31
4. Dead Planet 08:00
******************************
Total playing time: 25:47


(IMG:https://metalarea.org/images/youtube.png)

Technical info
(IMG:https://metalarea.org/images/spectrogram/2018_Nov/3bdc8d4ce5e5cabfe9b89c29b2f48482.png)
Input File: Black Wolf -EP- - 02 I\'m The Executioner.mp3
Channels : 2
Sample Rate : 44100
Precision : 16-bit
Duration : 00:04:19.91 = 11461855 samples = 19493 CDDA sectors
File Size : 10.5M
Bit Rate : 324k
Sample Encoding: MPEG audio (layer I, II or III)
Comments :
Title=I'm The Executioner
Artist=Braves Face The Devil
Album=Black Wolf [EP]
Tracknumber=2
Year=2015



Register


Thanks:
Go to the top of the page
  Insert nick Quick quote
+Quote Post

Reply to this topicStart new topic
1 User(s) are reading this topic (1 Guests and 0 Anonymous Users)
0 Members:

 



- Lo-Fi Version Support form
Copyrights and abuse reports form
Time is now: 19th November 2018 - 23:06:30