Welcome Guest ( Log In | Register )

> Releases Upload / Добавление релизов

Добавить релиз тут / Click here to add release
Рекомендованные обменники / Recommended file shares

 
Reply to this topicStart new topic
> Netuno Doom - The Universe The Prison [ep] (2018), Stoner/Doom Metal
post Nov 8 2018, 10:26:56
Post #1

Три Литра
***
Group: Завсегдатай
Posts: 220
Releases: 90
From: Helvetia
On Forums: 5 years 9 months
Thanks: 1414 time(s)
Switzerland


(IMG:https://metalarea.org/images/audiocovers/2018_Nov/acov_tid312714_thumb.jpg)

*Artist: Netuno Doom
*Album: The Universe The Prison [ep]
*Year: 2018
*Genre: Stoner/Doom Metal
*Country: Brazil (IMG:https://metalarea.org/forum/style_images/flags/Brazil.png)
*Format: mp3@CBR320kbps
*Size: 113MB

Tracklist:
1. The Prison 06:12
2. The Second Sun 05:49
3. Glactic Empire of Doom 08:17
4. Black Wolf 09:21
5. Dead Planet 08:06
******************************
Total playing time: 37:45




Technical info
(IMG:https://metalarea.org/images/spectrogram/2018_Nov/7742dcf7f438aeeac81bf257962873b1.png)
Input File: Netuno Doom - The Universe The Prison - 03 Galactic Empire Of Doom.mp3
Channels : 2
Sample Rate : 44100
Precision : 16-bit
Duration : 00:08:18.08 = 21965240 samples = 37355.9 CDDA sectors
File Size : 20.1M
Bit Rate : 322k
Sample Encoding: MPEG audio (layer I, II or III)
Comments :
Title=Galactic Empire Of Doom
Artist=Netuno Doom
Album=The Universe The Prison
Tracknumber=3
Year=2018



Register


Thanks:
Go to the top of the page
  Insert nick Quick quote
+Quote Post

Reply to this topicStart new topic
1 User(s) are reading this topic (1 Guests and 0 Anonymous Users)
0 Members:

 



- Lo-Fi Version Support form
Copyrights and abuse reports form
Time is now: 19th November 2018 - 22:35:27