Welcome Guest ( Log In | Register )

> Releases Upload / Добавление релизов

Добавить релиз тут / Click here to add release
Рекомендованные обменники / Recommended file shares

 
Reply to this topicStart new topic
> Sacro - Contemplación [demo] (2006), Melodic Black/Gothic/Dark Metal (D4)
post Nov 8 2018, 10:36:39
Post #1

but I'm white and furry
**********
Group: Металариец
Posts: 1,113
Releases: 395
From: Москва
On Forums: 12 years 9 months
Thanks: 4827 time(s)
Russian Federation


(IMG:https://metalarea.org/images/audiocovers/2018_Nov/acov_tid312715_thumb.jpg)

*Artist: Sacro
*Album: Contemplación [demo]
*Year: 2006
*Genre: Melodic Black/Gothic/Dark Metal
*Country: Argentina (IMG:https://metalarea.org/forum/style_images/flags/Argentina.png)
*Format: mp3@CBR320kbps
*Size: 41MB

Tracklist:
1. Vacio en mi Alma 2:35
2. Ansiedad 3:10
3. Sacrilegio 3:10
4. Sonata Oscura 6:45
5. El Final 2:29
******************************
Total playing time: 18:09



Extended info
FLAC-rip (спектры изначально имеют такой вид), lame 3.93


Technical info
(IMG:https://metalarea.org/images/spectrogram/2018_Nov/b4566fab27f071a0aaa119566af202c1.png)
Input File: 01 - Vacio en mi Alma.mp3
Channels : 2
Sample Rate : 44100
Precision : 16-bit
Duration : 00:02:35.60 = 6861828 samples = 11669.8 CDDA sectors
File Size : 6.23M
Bit Rate : 320k
Sample Encoding: MPEG audio (layer I, II or III)
Comments :
Title=Vacio en mi Alma
Artist=Sacro
Album=Contemplación
Tracknumber=1
Year=2006
Genre=Metal



Register


Go to the top of the page
  Insert nick Quick quote
+Quote Post

Reply to this topicStart new topic
1 User(s) are reading this topic (1 Guests and 0 Anonymous Users)
0 Members:

 



- Lo-Fi Version Support form
Copyrights and abuse reports form
Time is now: 19th November 2018 - 23:16:24