Welcome Guest ( Log In | Register )

> Releases Upload / Добавление релизов

Добавить релиз тут / Click here to add release
Рекомендованные обменники / Recommended file shares

 
Reply to this topicStart new topic
> Sacro - Contemplación II [demo] (2007), Melodic Black/Gothic/Dark Metal (D4)
post Nov 8 2018, 10:41:20
Post #1

but I'm white and furry
**********
Group: Металариец
Posts: 1,113
Releases: 395
From: Москва
On Forums: 12 years 9 months
Thanks: 4827 time(s)
Russian Federation


(IMG:https://metalarea.org/images/audiocovers/2018_Nov/acov_tid312716_thumb.jpg)

*Artist: Sacro
*Album: Contemplación II [demo]
*Year: 2007
*Genre: Melodic Black/Gothic/Dark Metal
*Country: Argentina (IMG:https://metalarea.org/forum/style_images/flags/Argentina.png)
*Format: mp3@CBR320kbps
*Size: 85MB

Tracklist:
1. Nemesis 6:30
2. Ideal 3:41
3. Recordandolos 4:26
4. Eclipse 3:21
5. Inestables suspiros agonicos 4:30
6. Overture 1:20
7. Caminante Nocturno 3:34
8. Contemplación 8:16
9. Mirada Gothica 1:56
******************************
Total playing time: 37:34



Extended info
lame 3.93


Technical info
(IMG:https://metalarea.org/images/spectrogram/2018_Nov/d8e3a19d3051838825cc1f1d40ea34e9.png)
Input File: 01 - Nemesis.mp3
Channels : 2
Sample Rate : 44100
Precision : 16-bit
Duration : 00:06:30.82 = 17234986 samples = 29311.2 CDDA sectors
File Size : 15.6M
Bit Rate : 320k
Sample Encoding: MPEG audio (layer I, II or III)
Comments :
Title=Nemesis
Artist=Sacro
Album=Contemplación II
Tracknumber=1
Year=2007
Genre=Metal



Register


Go to the top of the page
  Insert nick Quick quote
+Quote Post

Reply to this topicStart new topic
1 User(s) are reading this topic (1 Guests and 0 Anonymous Users)
0 Members:

 



- Lo-Fi Version Support form
Copyrights and abuse reports form
Time is now: 19th November 2018 - 22:36:05