Welcome Guest ( Log In | Register )

> Releases Upload / Добавление релизов

Добавить релиз тут / Click here to add release
Рекомендованные обменники / Recommended file shares

 
Reply to this topicStart new topic
> Sacro - Visión Del Apocalipsis (2009), Melodic Black/Gothic/Dark Metal (D4)
post Nov 8 2018, 10:47:42
Post #1

but I'm white and furry
**********
Group: Металариец
Posts: 1,113
Releases: 395
From: Москва
On Forums: 12 years 9 months
Thanks: 4827 time(s)
Russian Federation


(IMG:https://metalarea.org/images/audiocovers/2018_Nov/acov_tid312717_thumb.jpg)

*Artist: Sacro
*Album: Visión Del Apocalipsis
*Year: 2009
*Genre: Melodic Black/Gothic/Dark Metal
*Country: Argentina (IMG:https://metalarea.org/forum/style_images/flags/Argentina.png)
*Format: mp3@CBR320kbps
*Size: 78MB

Tracklist:
1. Preludio 1:46
2. Guerrero 4:52
3. Otro Lugar 3:39
4. Tempestad 4:43
5. Visión del Apocalipsis 2:48
6. Redención 5:39
7. Abismo 5:16
8. Seol 5:46
******************************
Total playing time: 34:29



Extended info
FLAC-rip (спектр изначально имеет такой вид), lame 3.93


Technical info
(IMG:https://metalarea.org/images/spectrogram/2018_Nov/e4ffbde63bf69d1e2a0ba3c36c0ee770.png)
Input File: 03 - Otro Lugar.mp3
Channels : 2
Sample Rate : 44100
Precision : 16-bit
Duration : 00:03:39.29 = 9670557 samples = 16446.5 CDDA sectors
File Size : 8.77M
Bit Rate : 320k
Sample Encoding: MPEG audio (layer I, II or III)
Comments :
Title=Otro Lugar
Artist=Sacro
Album=Visión del Apocalipsis
Tracknumber=3
Year=2009
Genre=Metal



Register


Go to the top of the page
  Insert nick Quick quote
+Quote Post

Reply to this topicStart new topic
1 User(s) are reading this topic (1 Guests and 0 Anonymous Users)
0 Members:

 



- Lo-Fi Version Support form
Copyrights and abuse reports form
Time is now: 19th November 2018 - 23:26:44