Welcome Guest ( Log In | Register )

> Releases Upload / Добавление релизов

Добавить релиз тут / Click here to add release
Рекомендованные обменники / Recommended file shares

 
Reply to this topicStart new topic
> Sacro - Consagración Del Odio [ep] (2010), Melodic Black/Gothic/Dark Metal (D4)
post Nov 8 2018, 10:51:49
Post #1

but I'm white and furry
**********
Group: Металариец
Posts: 1,113
Releases: 395
From: Москва
On Forums: 12 years 9 months
Thanks: 4827 time(s)
Russian Federation


(IMG:https://metalarea.org/images/audiocovers/2018_Nov/acov_tid312718_thumb.jpg)

*Artist: Sacro
*Album: Consagración Del Odio [ep]
*Year: 2010
*Genre: Melodic Black/Gothic/Dark Metal
*Country: Argentina (IMG:https://metalarea.org/forum/style_images/flags/Argentina.png)
*Format: mp3@CBR320kbps
*Size: 46MB

Tracklist:
1. Leyendas de Lycantropia 3:48
2. Fuego y Fuerza 2:18
3. El Despertar de Mi Odio 2:15
4. La Unica Salida 3:12
5. La Maldición de Sisifo 4:12
6. Mi Revolucion 4:34
******************************
Total playing time: 20:19



Extended info
FLAC-rip (спектр изначально имеет такой вид), lame 3.93


Technical info
(IMG:https://metalarea.org/images/spectrogram/2018_Nov/1bb25c439af44141171ba630d09d549f.png)
Input File: 01 - Leyendas de Lycantropia.mp3
Channels : 2
Sample Rate : 44100
Precision : 16-bit
Duration : 00:03:49.08 = 10102560 samples = 17181.2 CDDA sectors
File Size : 9.16M
Bit Rate : 320k
Sample Encoding: MPEG audio (layer I, II or III)
Comments :
Title=Leyendas de Lycantropia
Artist=Sacro
Album=Consagración del Odio
Tracknumber=1
Year=2010
Genre=Metal



Register


Go to the top of the page
  Insert nick Quick quote
+Quote Post

Reply to this topicStart new topic
1 User(s) are reading this topic (1 Guests and 0 Anonymous Users)
0 Members:

 



- Lo-Fi Version Support form
Copyrights and abuse reports form
Time is now: 19th November 2018 - 22:43:29