Welcome Guest ( Log In | Register )

> Releases Upload / Добавление релизов

Добавить релиз тут / Click here to add release
Рекомендованные обменники / Recommended file shares

 
Reply to this topicStart new topic
> Sacro - La Nueva Orden [ep] (2013), Melodic Black/Gothic/Dark Metal (D4)
post Nov 8 2018, 10:56:58
Post #1

but I'm white and furry
**********
Group: Металариец
Posts: 1,113
Releases: 395
From: Москва
On Forums: 12 years 9 months
Thanks: 4827 time(s)
Russian Federation


(IMG:https://wmpics.pics/dm-1AGS.jpg)

*Artist: Sacro
*Album: La Nueva Orden [ep]
*Year: 2013
*Genre: Melodic Black/Gothic/Dark Metal
*Country: Argentina (IMG:https://metalarea.org/forum/style_images/flags/Argentina.png)
*Format: mp3@CBR320kbps
*Size: 76MB

Tracklist:
1. Coliseo de las Sombras 4:53
2. Inframundo 3:48
3. Resistiendo a la Adversidad 4:01
4. Vacío de las Sombras 4:50
5. Angel Guardian 4:46
6. Descanso Eterno 3:37
7. Sleep So Long (Lestat cover) 5:13
8. Final 7:25
******************************
Total playing time: 38:33



Extended info
FLAC-rip (спектр изначально имеет такой вид), lame 3.93


Technical info
(IMG:https://metalarea.org/images/spectrogram/2018_Nov/0674fc696cd73631710dfa2f354433c6.png)
Input File: 01 - Coliseo de las Sombras.mp3
Channels : 2
Sample Rate : 44100
Precision : 16-bit
Duration : 00:04:53.82 = 12957374 samples = 22036.4 CDDA sectors
File Size : 11.8M
Bit Rate : 320k
Sample Encoding: MPEG audio (layer I, II or III)
Comments :
Title=Coliseo de las Sombras
Artist=Sacro
Album=La Nueva Orden
Tracknumber=1
Year=2013
Genre=Metal



Register


Go to the top of the page
  Insert nick Quick quote
+Quote Post

Reply to this topicStart new topic
1 User(s) are reading this topic (1 Guests and 0 Anonymous Users)
0 Members:

 



- Lo-Fi Version Support form
Copyrights and abuse reports form
Time is now: 19th November 2018 - 22:35:18