Welcome Guest ( Log In | Register )

> Releases Upload / Добавление релизов

Добавить релиз тут / Click here to add release
Рекомендованные обменники / Recommended file shares

> Gorycz - Piach (2018), Progressive Black/Death Metal
post Nov 8 2018, 11:04:00
Post #1

Аннигилятор пивА
Group Icon
Group: V.I.P
Posts: 50,415
Releases: 15653
From: Koenigsberg - TILZIT
On Forums: 12 years 5 months
Thanks: 340149 time(s)
Russian Federation


(IMG:https://metalarea.org/images/audiocovers/2018_Nov/acov_tid312721_thumb.jpg)

*Artist: Gorycz
*Album: Piach
*Year: 2018
*Genre: Progressive Black/Death Metal
*Country: Poland (IMG:https://metalarea.org/forum/style_images/flags/Poland.png)
*Format: mp3@CBR320kbps
*Size: 85MB

Tracklist:
1. Ziemia 06:47
2. Czarna Ciecz 06:29
3. Cizba Wyje 05:36
4. Lament 05:28
5. Strach Na Ludzi 04:36
6. Gorycz 06:53
******************************
Total playing time: 35:49




Extended info
Krzysiek Górski - Bass
Wojtek "Gonzo" Błaszkowski - Drums (Non Opus Dei, ex-Ash Devili, ex-UnSun, ex-Witchcraft, Alne, Gorycz, ex-Third Degree)
Przemek Grabowski - Guitars
Tomek Kukliński - Vocals




Technical info
(IMG:https://metalarea.org/images/spectrogram/2018_Nov/5fc90a7d063071439fb29c68dc587c03.png)
Input File: 01 Ziemia.mp3
Channels : 2
Sample Rate : 44100
Precision : 16-bit
Duration : 00:06:47.20 = 17957344 samples = 30539.7 CDDA sectors
File Size : 16.7M
Bit Rate : 328k
Sample Encoding: MPEG audio (layer I, II or III)
Comments :
Title=Ziemia
Artist=Gorycz
Album=Piach
Tracknumber=1/6
Year=2018
Genre=Black Metal
Discnumber=1/1



Register


Go to the top of the page
  Insert nick Quick quote
+Quote Post
 
Start new topic
Replies (1 - 4)
post Nov 8 2018, 12:12:12
Post #2

Аннигилятор пивА
Group Icon
Group: V.I.P
Posts: 50,415
Releases: 15653
From: Koenigsberg - TILZIT
On Forums: 12 years 5 months
Thanks: 340149 time(s)
Russian Federation


MIRROR
Register





Thanks:
Go to the top of the page
  Insert nick Quick quote
+Quote Post
post Nov 8 2018, 12:36:23
Post #3

Правь статус, ####!111
**************
Group: Металариец
Posts: 2,754
Releases: 728
On Forums: 8 years 1 month
Thanks: 9634 time(s)
Ukraine


Blackened/Post-Death/Math Metal. Примитивно, атмосферно, вокал мимо. На любителя.
Go to the top of the page
  Insert nick Quick quote
+Quote Post
post Nov 8 2018, 13:39:59
Post #4

Три Литра
***
Group: Завсегдатай
Posts: 287
Releases: 54
From: Rostov-on-Don, Russia
On Forums: 12 years 1 week
Thanks: 550 time(s)
Russian Federation


QUOTE(KoreanGringo @ Nov 8 2018, 14:36:23) *
Blackened/Post-Death/Math Metal. Примитивно, атмосферно, вокал мимо. На любителя.



вероятно так и есть....
Go to the top of the page
  Insert nick Quick quote
+Quote Post
post Nov 9 2018, 00:44:34
Post #5

Три Литра
***
Group: Завсегдатай
Posts: 223
Releases: 0
On Forums: 11 years 7 months
Thanks: 25 time(s)
United Kingdom


Thanks. Love it. (IMG:style_emoticons/default/20.gif) (IMG:style_emoticons/default/smile1.gif)
Go to the top of the page
  Insert nick Quick quote
+Quote Post

Reply to this topicStart new topic
1 User(s) are reading this topic (1 Guests and 0 Anonymous Users)
0 Members:

 



- Lo-Fi Version Support form
Copyrights and abuse reports form
Time is now: 19th November 2018 - 23:13:47