Welcome Guest ( Log In | Register )

> Releases Upload / Добавление релизов

Добавить релиз тут / Click here to add release
Рекомендованные обменники / Recommended file shares

> Lost In Thought - Renascence (2018), Progressive Metal
post Nov 8 2018, 11:11:28
Post #1

Аннигилятор пивА
Group Icon
Group: V.I.P
Posts: 50,415
Releases: 15653
From: Koenigsberg - TILZIT
On Forums: 12 years 5 months
Thanks: 340138 time(s)
Russian Federation


(IMG:https://metalarea.org/images/audiocovers/2018_Nov/acov_tid312722_thumb.jpg)

*Artist: Lost In Thought
*Album: Renascence
*Year: 2018
*Genre: Progressive Metal
*Country: United Kingdom (IMG:https://metalarea.org/forum/style_images/flags/United%20Kingdom.png)
*Format: mp3@CBR320kbps
*Size: 131MB

Tracklist:
1. A New Life 07:22
2. Ascendance 04:42
3. The Promise 05:33
4. Save Me 07:44
5. Don't Fear Me 06:43
6. Open Your Eyes 05:02
7. Delirium 06:38
8. Legacy 07:35
9. Absolution 05:01
******************************
Total playing time: 56:20



Extended info

David Grey - Guitars (lead) (2007-2009, 2009-2013, 2016-present)
Deane Lazenby - Vocals (2007-2009, 2016-present)
Chris Billingham - Drums (2008-2009, 2009-2012, 2016-present)
Josh Heard - Bass (2016-present)
Diego Zapatero - Keyboards (2017-present) See also: Mercury Rex, ex-Rex Rekiem


Technical info
(IMG:https://metalarea.org/images/spectrogram/2018_Nov/8d9bfb0773539e4fbaf168a1a34e83a0.png)
Input File: 02. Ascendance.mp3
Channels : 2
Sample Rate : 44100
Precision : 16-bit
Duration : 00:04:42.04 = 12437788 samples = 21152.7 CDDA sectors
File Size : 11.3M
Bit Rate : 322k
Sample Encoding: MPEG audio (layer I, II or III)
Comments :
Title=Ascendance
Artist=Lost In Thought
Album=Renascence
Tracknumber=2/9
Year=2018



Register


Go to the top of the page
  Insert nick Quick quote
+Quote Post
 
Start new topic
Replies (1 - 7)
post Nov 8 2018, 12:14:38
Post #2

Аннигилятор пивА
Group Icon
Group: V.I.P
Posts: 50,415
Releases: 15653
From: Koenigsberg - TILZIT
On Forums: 12 years 5 months
Thanks: 340138 time(s)
Russian Federation


MIRROR
Register


Go to the top of the page
  Insert nick Quick quote
+Quote Post
post Nov 8 2018, 12:36:16
Post #3

на аватаре не я
**************
Group: Металариец
Posts: 4,423
Releases: 6
From: "Самопровозглашенная ДНР" (с)
On Forums: 9 years 4 months
Thanks: 2083 time(s)
Russian Federation


Вроде, довольно симпатично. Превью на VK
Go to the top of the page
  Insert nick Quick quote
+Quote Post
post Nov 8 2018, 13:58:46
Post #4

21st Century Schizoid Man
**************
Group: Металариец
Posts: 5,398
Releases: 67
From: Moscow
On Forums: 10 years 6 months
Thanks: 4193 time(s)
Russian Federation


Go to the top of the page
  Insert nick Quick quote
+Quote Post
post Nov 8 2018, 19:23:22
Post #5

Тридцать лет на борту "Тяжёлого" крейсера
***********
Group: Металариец
Posts: 1,858
Releases: 0
From: Питер
On Forums: 11 years 5 months
Thanks: 431 time(s)
Russian Federation


Унылое музло с таким же унылым вокалом (IMG:style_emoticons/default/22.gif)


Thanks:
(1) Ghostb,
Go to the top of the page
  Insert nick Quick quote
+Quote Post
post Nov 9 2018, 09:18:19
Post #6

21st Century Schizoid Man
**************
Group: Металариец
Posts: 5,398
Releases: 67
From: Moscow
On Forums: 10 years 6 months
Thanks: 4193 time(s)
Russian Federation


Вокал нормальный. Вот с материалом что-то не то, не раскрывается.
Go to the top of the page
  Insert nick Quick quote
+Quote Post
post Nov 9 2018, 18:51:35
Post #7

на аватаре не я
**************
Group: Металариец
Posts: 4,423
Releases: 6
From: "Самопровозглашенная ДНР" (с)
On Forums: 9 years 4 months
Thanks: 2083 time(s)
Russian Federation


А мне альбом понравился. Это, конечно, не высший эшелон, но в коллекции оставить тоже не стыдно. Все очень добротно.
Go to the top of the page
  Insert nick Quick quote
+Quote Post
post Nov 9 2018, 19:01:26
Post #8

21st Century Schizoid Man
**************
Group: Металариец
Posts: 5,398
Releases: 67
From: Moscow
On Forums: 10 years 6 months
Thanks: 4193 time(s)
Russian Federation


Да, раскрывается всё-таки. Та же история, что и с дебютным альбомом: очень долго раскуривал, но потом накрыло.
Go to the top of the page
  Insert nick Quick quote
+Quote Post

Reply to this topicStart new topic
1 User(s) are reading this topic (1 Guests and 0 Anonymous Users)
0 Members:

 



- Lo-Fi Version Support form
Copyrights and abuse reports form
Time is now: 19th November 2018 - 22:35:48