Welcome Guest ( Log In | Register )

> Releases Upload / Добавление релизов

Добавить релиз тут / Click here to add release
Рекомендованные обменники / Recommended file shares

> Kambrium - Dawn Of The Five Suns (2018), Epic/Melodic Death/Power Metal (D5)
post Nov 8 2018, 12:38:46
Post #1

Аннигилятор пивА
Group Icon
Group: V.I.P
Posts: 50,415
Releases: 15653
From: Koenigsberg - TILZIT
On Forums: 12 years 5 months
Thanks: 340153 time(s)
Russian Federation


(IMG:https://metalarea.org/images/audiocovers/2018_Nov/acov_tid312725_thumb.jpg)

*Artist: Kambrium
*Album: Dawn Of The Five Suns
*Year: 2018
*Genre: Epic/Melodic Death/Power Metal
*Country: Germany (IMG:https://metalarea.org/forum/style_images/flags/Germany.png)
*Format: mp3@CBR320kbps
*Size: 147MB

Tracklist:
01. Forest Hunt 00:54
02. Dawn of the Five Suns 05:19
03. Against All Gods 05:51
04. Cabrakan, God of Mountains 10:25
05. Everlasting Resistance 06:56
06. Ghost Shaman 06:14
07. Tribe of Darkness 05:21
08. Nocturnal Woods 01:38
09. Sacrifices Must Be made 05:54
10. Blood Soaked Goddess 05:35
11. Lord of Mictlan 06:13
******************************
Total playing time: 1:00:20



Extended info
Jan Hein - Keyboards & Orchestrations
Karsten Simon - Guitar & Clean vocals
Martin Simon - Bass & Growls
Fabien Chmiel - Drums
Maximilian Werner - Guitar & Backing vocals


Technical info
(IMG:https://metalarea.org/images/spectrogram/2018_Nov/c526393347b90190a20cb3df82c5991c.png)
Input File: 02. Dawn of the Five Suns.mp3
Channels : 2
Sample Rate : 44100
Precision : 16-bit
Duration : 00:05:19.39 = 14085099 samples = 23954.2 CDDA sectors
File Size : 13.3M
Bit Rate : 332k
Sample Encoding: MPEG audio (layer I, II or III)
Comments :
Title=Dawn of the Five Suns
Artist=Kambrium
Album=Dawn of the Five Suns
Tracknumber=2/22
Year=2018
Discnumber=1/1



Register


Go to the top of the page
  Insert nick Quick quote
+Quote Post
 
Start new topic
Replies (1 - 3)
post Nov 8 2018, 13:03:23
Post #2

Аннигилятор пивА
Group Icon
Group: V.I.P
Posts: 50,415
Releases: 15653
From: Koenigsberg - TILZIT
On Forums: 12 years 5 months
Thanks: 340153 time(s)
Russian Federation


MIRROR
Register



Go to the top of the page
  Insert nick Quick quote
+Quote Post
post Nov 8 2018, 17:40:38
Post #3

Мегаманьяк
***********
Group: Металариец
Posts: 1,635
Releases: 0
From: Dnipro
On Forums: 10 years 4 months
Thanks: 428 time(s)
Ukraine


Второй подряд их релиз под девизом: "Поворот не туда" (IMG:style_emoticons/default/25.gif)
Go to the top of the page
  Insert nick Quick quote
+Quote Post
post Nov 8 2018, 21:57:42
Post #4

Маньяк
**********
Group: Металариец
Posts: 1,078
Releases: 0
On Forums: 9 years 8 months
Thanks: 376 time(s)
Antarctica


Достаточно неплохой альбом. Его явно стоит послушать хотя бы раз. Но дебютник у них самый лучший.
Go to the top of the page
  Insert nick Quick quote
+Quote Post

Reply to this topicStart new topic
2 User(s) are reading this topic (2 Guests and 0 Anonymous Users)
0 Members:

 



- Lo-Fi Version Support form
Copyrights and abuse reports form
Time is now: 19th November 2018 - 23:37:48