Welcome Guest ( Log In | Register )

> Releases Upload / Добавление релизов

Добавить релиз тут / Click here to add release
Рекомендованные обменники / Recommended file shares

> Ashes Of Ares - Well Of Souls (2018), Epic Heavy/Power Metal
post Nov 8 2018, 13:29:59
Post #1

Аннигилятор пивА
Group Icon
Group: V.I.P
Posts: 50,415
Releases: 15653
From: Koenigsberg - TILZIT
On Forums: 12 years 5 months
Thanks: 340148 time(s)
Russian Federation


(IMG:https://metalarea.org/images/audiocovers/2018_Nov/acov_tid312729_thumb.jpg)

*Artist: Ashes Of Ares
*Album: Well Of Souls
*Year: 2018
*Genre: Epic Heavy/Power Metal
*Country: United States (IMG:https://metalarea.org/forum/style_images/flags/United%20States.png)
*Format: mp3@CBR320kbps
*Size: 139MB

Tracklist:
01. Consuming The Mana
02. The Alien
03. Unworthy
04. Soul Searcher
05. Sun Dragon
06. Trascending
07. Let All Despair
08. In the Darkness
09. Spirit of Man
10. Time Traveler
11. The God of War
12. You Know my name
******************************
Total playing time: 57:54



Extended info
Matt Barlow (ex ICED EARTH, ex-Cauldron, ex-Pyramaze) – Vocals
Freddie Vidales (ex ICED EARTH) – Guitar & Bass
Van Williams (ex NEVERMORE, Armageddon, Pure Sweet Hell) – Drums


Technical info
(IMG:https://metalarea.org/images/spectrogram/2018_Nov/04d3e838aaf234eed53ae0391524bb68.png)
Input File: 02. The Alien.mp3
Channels : 2
Sample Rate : 44100
Precision : 16-bit
Duration : 00:04:19.78 = 11456122 samples = 19483.2 CDDA sectors
File Size : 10.7M
Bit Rate : 330k
Sample Encoding: MPEG audio (layer I, II or III)
Comments :
Title=The Alien
Artist=Ashes Of Ares
Album=Well of Souls
Tracknumber=2/12
Year=2018
Discnumber=1/1



Register



Go to the top of the page
  Insert nick Quick quote
+Quote Post
 
Start new topic
Replies (1 - 7)
post Nov 8 2018, 13:52:26
Post #2

Аннигилятор пивА
Group Icon
Group: V.I.P
Posts: 50,415
Releases: 15653
From: Koenigsberg - TILZIT
On Forums: 12 years 5 months
Thanks: 340148 time(s)
Russian Federation


MIRROR
Register


Go to the top of the page
  Insert nick Quick quote
+Quote Post
post Nov 8 2018, 13:56:12
Post #3

Наливай!
**************
Group: Металариец
Posts: 5,132
Releases: 27
From: Москва-Бибирево
On Forums: 10 years 8 months
Thanks: 2417 time(s)
Russian Federation


Matt Barlow (IMG:style_emoticons/default/gop_spb.gif)
Go to the top of the page
  Insert nick Quick quote
+Quote Post
post Nov 8 2018, 14:01:30
Post #4

Восемь Литров
********
Group: Металариец
Posts: 845
Releases: 0
From: Харьков
On Forums: 9 years 1 month
Thanks: 264 time(s)
Ukraine


Очередной бессмысленный проект с участием хороших музыкантов. Да и Барлоу уже не тот, честно говоря.
Go to the top of the page
  Insert nick Quick quote
+Quote Post
post Nov 8 2018, 14:07:51
Post #5

MDM-Thrash Metal
**************
Group: Металариец
Posts: 7,245
Releases: 422
From: Одесса
On Forums: 11 years 3 months
Thanks: 13780 time(s)
Ukraine


С первых же аккордов создается впечатление, что слушаешь новое творение от Iced Earth!
Go to the top of the page
  Insert nick Quick quote
+Quote Post
post Nov 8 2018, 14:08:59
Post #6

Правь статус, ####!111
**************
Group: Металариец
Posts: 34,636
Releases: 504
On Forums: 9 years 5 months
Thanks: 26725 time(s)
Russian Federation


ЦИТАТА(Ghostb @ Nov 8 2018, 17:01:30) *
Очередной бессмысленный проект с участием хороших музыкантов.


Какие еще назовёшь? (IMG:style_emoticons/default/crazy.gif)
Go to the top of the page
  Insert nick Quick quote
+Quote Post
post Nov 8 2018, 14:36:55
Post #7

Восемь Литров
********
Group: Металариец
Posts: 845
Releases: 0
From: Харьков
On Forums: 9 years 1 month
Thanks: 264 time(s)
Ukraine


ЦИТАТА(Andrew @ Nov 8 2018, 15:07:51) *
С первых же аккордов создается впечатление, что слушаешь новое творение от Iced Earth

Не создается, потому что фирменной гитары Шаффера нет (как и талантливого композитора).

ЦИТАТА(vosmidesijatye @ Nov 8 2018, 15:08:59) *
Какие еще назовёшь?

Ghost Ship Octavius, к примеру, который пересекается с сабжем составом музыкантов. Любой проект с участием Риппера после его увольнения из Iced Earth.
Go to the top of the page
  Insert nick Quick quote
+Quote Post
post Nov 9 2018, 21:09:02
Post #8

Восемь Литров
********
Group: Металариец
Posts: 845
Releases: 0
From: Харьков
On Forums: 9 years 1 month
Thanks: 264 time(s)
Ukraine


Я таки послушал - на редкость проходной материал выдали. Вокал Барлоу здорово подсел и уже почти не цепляет (впрочем, в этом еще немалая заслуга самих вокальных партий). Кроме местами приятных гитар Видалеса слушать нечего, по-моему. Сооснователь проекта, ударник Вэн Вилламс, видимо, не зря свалил.
Go to the top of the page
  Insert nick Quick quote
+Quote Post

Reply to this topicStart new topic
2 User(s) are reading this topic (2 Guests and 0 Anonymous Users)
0 Members:

 



- Lo-Fi Version Support form
Copyrights and abuse reports form
Time is now: 19th November 2018 - 23:06:10