Welcome Guest ( Log In | Register )

> Releases Upload / Добавление релизов

Добавить релиз тут / Click here to add release
Рекомендованные обменники / Recommended file shares

> Deathrite - Nightmares Reign (2018), Death Metal/Grindcore (D6)
post Nov 8 2018, 13:46:59
Post #1

Serial Uploader
Group Icon
Group: V.I.P
Posts: 33,297
Releases: 31568
From: Lithuania
On Forums: 10 years 5 months
Thanks: 360706 time(s)
Lithuania


(IMG:https://metalarea.org/images/audiocovers/2018_Nov/acov_tid312732_thumb.jpg)

*Artist: Deathrite
*Album: Nightmares Reign
*Year: 2018
*Genre: Death Metal/Grindcore
*Country: Germany (IMG:https://metalarea.org/forum/style_images/flags/Germany.png)
*Format: mp3@CBR320kbps
*Size: 99MB

Tracklist:
01. When Nightmares Reign 04:52
02. Appetite for Murder 04:31
03. Invoke Nocturnal Light 04:58
04. Demon Soul 07:22
05. Devil's Poison 05:02
06. Bloodlust 02:26
07. Obscure Shades 04:20
08. Temptation Calls 09:28
******************************
Total playing time: 42:59

(IMG:https://metalarea.org/images/myspace.png)


Technical info
(IMG:https://metalarea.org/images/spectrogram/2018_Nov/819879ba8489c9c09e18c8fc3c4b226e.png)
Input File: 02. Appetite for Murder.mp3
Channels : 2
Sample Rate : 44100
Precision : 16-bit
Duration : 00:04:31.66 = 11980294 samples = 20374.6 CDDA sectors
File Size : 10.9M
Bit Rate : 320k
Sample Encoding: MPEG audio (layer I, II or III)
Comments :
Title=Appetite for Murder
Artist=Deathrite
Album=Nightmares Reign
Tracknumber=02/08
Year=2018-18-20
Discnumber=1/1



Register


Go to the top of the page
  Insert nick Quick quote
+Quote Post
 
Start new topic
Replies (1 - 1)
post Nov 9 2018, 00:23:40
Post #2

Правь статус, ####!111
**************
Group: Металариец
Posts: 15,001
Releases: 10277
From: Г.Харьков
On Forums: 6 years 6 months
Thanks: 169684 time(s)
Unknown


Cloud Mail 320
Register



Thanks:
Go to the top of the page
  Insert nick Quick quote
+Quote Post

Reply to this topicStart new topic
1 User(s) are reading this topic (1 Guests and 0 Anonymous Users)
0 Members:

 



- Lo-Fi Version Support form
Copyrights and abuse reports form
Time is now: 19th November 2018 - 22:47:57