Welcome Guest ( Log In | Register )

> Releases Upload / Добавление релизов

Добавить релиз тут / Click here to add release
Рекомендованные обменники / Recommended file shares

 
Reply to this topicStart new topic
> Cripple Bastards - La Fine Cresce Da Dentro (2018), Grindcore (D)
post Nov 8 2018, 14:10:59
Post #1

Serial Uploader
Group Icon
Group: V.I.P
Posts: 33,290
Releases: 31565
From: Lithuania
On Forums: 10 years 5 months
Thanks: 360604 time(s)
Lithuania


(IMG:https://metalarea.org/images/audiocovers/2018_Nov/acov_tid312733_thumb.jpg)

*Artist: Cripple Bastards
*Album: La Fine Cresce Da Dentro
*Year: 2018
*Genre: Grindcore
*Country: Italy (IMG:https://metalarea.org/forum/style_images/flags/Italy.png)
*Format: mp3@CBR320kbps
*Size: 65MB

Tracklist:
01. Suicidio assistito 00:16
02. Non coinvolto 02:04
03. La memoria del dolore 01:50
04. Passi nel vuoto 01:55
05. Ombra nell'ombra 00:46
06. Due metà in un errore 01:53
07. Chiusura forzata 05:08
08. Dove entra il coltello 00:56
09. Crimine contro l'immagine 01:44
10. Narcolessia emotiva 01:50
11. Nervi in guerra 01:04
12. Sguardo neutro 01:37
13. Interrato vivo 00:05
14. Equilibrio ansiogeno 00:04
15. Quali sentieri 00:07
16. Decessi per cause sconosciute 01:20
17. Recidive 01:33
18. Crociati del mare interno 04:40
******************************
Total playing time: 28:52

(IMG:https://metalarea.org/images/myspace.png)





Technical info
(IMG:https://metalarea.org/images/spectrogram/2018_Nov/1b26130d076e8ab2b421cf230d1c66da.png)
Input File: 02-cripple_bastards-non_coinvolto-490ce449.mp3
Channels : 2
Sample Rate : 44100
Precision : 16-bit
Duration : 00:02:04.17 = 5475897 samples = 9312.75 CDDA sectors
File Size : 5.20M
Bit Rate : 335k
Sample Encoding: MPEG audio (layer I, II or III)
Comments :
Title=Non coinvolto
Artist=Cripple Bastards
Album=La fine cresce da dentro
Tracknumber=2/18
Year=2018
Genre=Hardcore



Register


Go to the top of the page
  Insert nick Quick quote
+Quote Post

Reply to this topicStart new topic
2 User(s) are reading this topic (2 Guests and 0 Anonymous Users)
0 Members:

 



- Lo-Fi Version Support form
Copyrights and abuse reports form
Time is now: 17th November 2018 - 22:27:05