Welcome Guest ( Log In | Register )

> Releases Upload / Добавление релизов

Добавить релиз тут / Click here to add release
Рекомендованные обменники / Recommended file shares

 
Reply to this topicStart new topic
> Feed Them Death - No Solution/Dissolution (2018), Death Metal/Grindcore
post Nov 8 2018, 14:24:20
Post #1

Восемь Литров
********
Group: Металариец
Posts: 855
Releases: 718
From: Новороссийск
On Forums: 7 years 6 months
Thanks: 12188 time(s)
Russian Federation


(IMG:https://metalarea.org/images/audiocovers/2018_Nov/acov_tid312734_thumb.jpg)

*Artist: Feed Them Death
*Album: No Solution/Dissolution
*Year: 2018
*Genre: Death Metal/Grindcore
*Country: United Kingdom (IMG:https://metalarea.org/forum/style_images/flags/United%20Kingdom.png)
*Format: mp3@CBR320kbps
*Size: 58MB

Tracklist:
01. Cadavoracity I 01:36
02. Exposed Parading Dissent 02:53
03. Bloodshed Theatre 02:13
04. The Horrific Balance 01:36
05. Terrific Gods Caravan 02:49
06. First Time Dead 02:02
07. Prosperity / Captivity 02:28
08. Doctrine Of Approximation 02:17
09. Penance In The Wrong Direction 02:01
10. Inception In Rot 01:51
11. Divide + Conquer 02:19
12. Cadavoracity II 01:15
******************************
Total playing time: 25:25




Extended info






Technical info
(IMG:https://metalarea.org/images/spectrogram/2018_Nov/d636130e9cf6c85d5ea1198c5bc7cbc4.png)
Input File: 02. Exposed Parading Dissent.mp3
Channels : 2
Sample Rate : 44100
Precision : 16-bit
Duration : 00:02:53.52 = 7652144 samples = 13013.9 CDDA sectors
File Size : 6.94M
Bit Rate : 320k
Sample Encoding: MPEG audio (layer I, II or III)
Comments :
Title=Exposed Parading Dissent
Artist=Feed Them Death
Album=No Solution / Dissolution
Tracknumber=02
Year=2018
Genre=Death Metal



Register


Go to the top of the page
  Insert nick Quick quote
+Quote Post

Reply to this topicStart new topic
1 User(s) are reading this topic (1 Guests and 0 Anonymous Users)
0 Members:

 



- Lo-Fi Version Support form
Copyrights and abuse reports form
Time is now: 19th November 2018 - 22:57:45