Welcome Guest ( Log In | Register )

> Releases Upload / Добавление релизов

Добавить релиз тут / Click here to add release
Рекомендованные обменники / Recommended file shares

> Faanefjell - Dovrefall (2018), Folk/Black Metal
post Nov 8 2018, 14:41:18
Post #1

Аннигилятор пивА
Group Icon
Group: V.I.P
Posts: 50,415
Releases: 15653
From: Koenigsberg - TILZIT
On Forums: 12 years 5 months
Thanks: 340144 time(s)
Russian Federation


(IMG:https://metalarea.org/images/audiocovers/2018_Nov/acov_tid312735_thumb.jpg)

*Artist: Faanefjell
*Album: Dovrefall
*Year: 2018
*Genre: Folk/Black Metal
*Country: Norway (IMG:https://metalarea.org/forum/style_images/flags/Norway.png)
*Format: mp3@CBR320kbps
*Size: 94MB

Tracklist:
1. Styggedommen vaakner 03:57
2. Hat 03:45
3. Frostbitt 05:01
4. Svineslaktervisa 04:27
5. Vindstille 04:32
6. Murua vél 04:05
7. Heks og djevel 03:47
8. Fjellfest 03:44
9. Troens skarpe kl¢r 04:15
******************************
Total playing time: 37:33




Extended info
Grimtroll - Guitars (2009-present) See also: Eon, ex-Rules of Engagement, ex-Cutthroat
Syrtroll - Vocals (2009-present) See also: Grívf, ex-Managarm, ex-Forbandet
Beist - Bass (2010-present)
Draagyn - Guitars (2010-present)


Technical info
(IMG:https://metalarea.org/images/spectrogram/2018_Nov/da58368bcad646cd28ccadfbbefcf569.png)
Input File: 02. Hat.mp3
Channels : 2
Sample Rate : 44100
Precision : 16-bit
Duration : 00:03:45.09 = 9926293 samples = 16881.5 CDDA sectors
File Size : 9.89M
Bit Rate : 352k
Sample Encoding: MPEG audio (layer I, II or III)
Comments :
Title=Hat
Artist=Faanefjell
Album=Dovrefall
Tracknumber=2/9
Year=2018
Discnumber=1/1



Register


Go to the top of the page
  Insert nick Quick quote
+Quote Post
 
Start new topic
Replies (1 - 3)
post Nov 8 2018, 23:09:39
Post #2

Два Литра
**
Group: Завсегдатай
Posts: 144
Releases: 0
On Forums: 9 years 9 months
Thanks: 106 time(s)
Ukraine


Register


Thanks:
Go to the top of the page
  Insert nick Quick quote
+Quote Post
post Nov 10 2018, 19:25:30
Post #3

Мегаманьяк
***********
Group: Металариец
Posts: 1,635
Releases: 0
From: Dnipro
On Forums: 10 years 4 months
Thanks: 428 time(s)
Ukraine


Ну эти обязательны к ознакомлению, дебютник даже на CD имеется.


Thanks:
Go to the top of the page
  Insert nick Quick quote
+Quote Post
post Nov 10 2018, 19:45:29
Post #4

Аннигилятор пивА
Group Icon
Group: V.I.P
Posts: 50,415
Releases: 15653
From: Koenigsberg - TILZIT
On Forums: 12 years 5 months
Thanks: 340144 time(s)
Russian Federation


ЦИТАТА(isvili @ Nov 10 2018, 18:25:30) *
Ну эти обязательны к ознакомлению, дебютник даже на CD имеется.

Trollmarsj восьмилетней давности почти культ уже в трольском этно, затер до дыр в свое время, долго же они пилили второй альбом

видосик кстати
Go to the top of the page
  Insert nick Quick quote
+Quote Post

Reply to this topicStart new topic
2 User(s) are reading this topic (2 Guests and 0 Anonymous Users)
0 Members:

 



- Lo-Fi Version Support form
Copyrights and abuse reports form
Time is now: 19th November 2018 - 23:03:33