Welcome Guest ( Log In | Register )

> Releases Upload / Добавление релизов

Добавить релиз тут / Click here to add release
Рекомендованные обменники / Recommended file shares

 
Reply to this topicStart new topic
> OHHMS - Exist (2018), Sludge/Post-Metal
post Nov 8 2018, 14:41:49
Post #1

Serial Uploader
Group Icon
Group: V.I.P
Posts: 33,297
Releases: 31568
From: Lithuania
On Forums: 10 years 5 months
Thanks: 360707 time(s)
Lithuania


(IMG:https://metalarea.org/images/audiocovers/2018_Nov/acov_tid312736_thumb.jpg)

*Artist: OHHMS
*Album: Exist
*Year: 2018
*Genre: Sludge/Post-Metal
*Country: United Kingdom (IMG:https://metalarea.org/forum/style_images/flags/United%20Kingdom.png)
*Format: mp3@CBR320kbps
*Size: 100MB

Tracklist:
01. Subjects
02. Shambles
03. Lay Down
04. Calves
******************************
Total playing time: 43:06




Technical info
(IMG:https://metalarea.org/images/spectrogram/2018_Nov/c0046b5fb3c1564fe5cf2ea018fdd382.png)
Input File: 02 Shambles.mp3
Channels : 2
Sample Rate : 44100
Precision : 16-bit
Duration : 00:08:01.12 = 21217524 samples = 36084.2 CDDA sectors
File Size : 19.2M
Bit Rate : 320k
Sample Encoding: MPEG audio (layer I, II or III)
Comments :
Title=Shambles
Artist=Ohhms
Album=Exist
Tracknumber=02/04
Year=2018-18-20
Discnumber=1/1



Register


Go to the top of the page
  Insert nick Quick quote
+Quote Post

Reply to this topicStart new topic
1 User(s) are reading this topic (1 Guests and 0 Anonymous Users)
0 Members:

 



- Lo-Fi Version Support form
Copyrights and abuse reports form
Time is now: 19th November 2018 - 23:07:52