Welcome Guest ( Log In | Register )

> Releases Upload / Добавление релизов

Добавить релиз тут / Click here to add release
Рекомендованные обменники / Recommended file shares

> Magoth - Zeitgeist : Dystopia (2018), Atmospheric/Melodic Black Metal (D5)
post Nov 8 2018, 14:46:28
Post #1

Аннигилятор пивА
Group Icon
Group: V.I.P
Posts: 50,415
Releases: 15653
From: Koenigsberg - TILZIT
On Forums: 12 years 5 months
Thanks: 340138 time(s)
Russian Federation


(IMG:https://metalarea.org/images/audiocovers/2018_Nov/acov_tid312737_thumb.jpg)

*Artist: Magoth
*Album: Zeitgeist : Dystopia
*Year: 2018
*Genre: Atmospheric/Melodic Black Metal
*Country: Germany (IMG:https://metalarea.org/forum/style_images/flags/Germany.png)
*Format: mp3@CBR320kbps
*Size: 145MB

Tracklist:
01. Rise
02. Once Ylem Began
03. Sinister Forces Arose
04. Above the Sacred Lands
05. Zenith
06. Beneath All Venom and Void
07. The Fates of Resurrection
08. Summoning the Apocalypse
09. Decay
10. When Tyrants Shall Fall
11. Solidified Ashes Awake
12. The Nemesis of a Blaze
13. Infinity
******************************
Total playing time: 1:00:54




Extended info
Magoth’s second studio album »Zeitgeist : Dystopia« is a declaration of war to all dogmatists whose perfidious visions poison and shape the Zeitgeist. Three chapters – Rise, Zenith and Decay – reveal the vicious cirle of a man-made dystopia.
Heergott - Vocals & Rhythm Guitar +++ Shagnar - Lead Guitar +++ Widrir - Drums +++ Havoc - Bass


Technical info
(IMG:https://metalarea.org/images/spectrogram/2018_Nov/28d7bc108eaccdd66a2c31c1b09766ab.png)
Input File: 03. Sinister Forces Arose.mp3
Channels : 2
Sample Rate : 44100
Precision : 16-bit
Duration : 00:05:13.15 = 13809915 samples = 23486.2 CDDA sectors
File Size : 13.1M
Bit Rate : 334k
Sample Encoding: MPEG audio (layer I, II or III)
Comments :
Title=Sinister Forces Arose
Artist=Magoth
Album=Zeitgeist : Dystopia
Tracknumber=3/13
Year=2018
Genre=Metal
Discnumber=1/1



Register


Go to the top of the page
  Insert nick Quick quote
+Quote Post
 
Start new topic
Replies (1 - 5)
post Nov 9 2018, 08:29:43
Post #2

Аннигилятор пивА
Group Icon
Group: V.I.P
Posts: 50,415
Releases: 15653
From: Koenigsberg - TILZIT
On Forums: 12 years 5 months
Thanks: 340138 time(s)
Russian Federation


mirror
Register



Thanks:
Go to the top of the page
  Insert nick Quick quote
+Quote Post
post Nov 9 2018, 10:51:27
Post #3

MDM-Thrash Metal
**************
Group: Металариец
Posts: 7,245
Releases: 422
From: Одесса
On Forums: 11 years 3 months
Thanks: 13780 time(s)
Ukraine


Как по мне - так Мелодик Блэк и очень даже добротный.


Thanks:
Go to the top of the page
  Insert nick Quick quote
+Quote Post
post Nov 10 2018, 19:28:04
Post #4

Мегаманьяк
***********
Group: Металариец
Posts: 1,635
Releases: 0
From: Dnipro
On Forums: 10 years 4 months
Thanks: 428 time(s)
Ukraine


Неожиданно быстро они запилили новый альбом, после великолепного "Anti Terrestrial Black Metal" 2017 года, альбом не разочаровывает, очень годня работа, как раз то что нужно. Лося бы (IMG:style_emoticons/default/smile3.gif)
Go to the top of the page
  Insert nick Quick quote
+Quote Post
post Nov 10 2018, 19:37:59
Post #5

Аннигилятор пивА
Group Icon
Group: V.I.P
Posts: 50,415
Releases: 15653
From: Koenigsberg - TILZIT
On Forums: 12 years 5 months
Thanks: 340138 time(s)
Russian Federation


ЦИТАТА(Andrew @ Nov 9 2018, 09:51:27) *
Как по мне - так Мелодик Блэк и очень даже добротный.

согласен, атмосферно и мелодично, присутствуют как скоростные, так и придумленные ништяки
Go to the top of the page
  Insert nick Quick quote
+Quote Post
post Yesterday, 19:25:04
Post #6

Ъ
**************
Group: Металариец
Posts: 9,267
Releases: 9
On Forums: 9 years 10 months
Thanks: 1775 time(s)
Sweden


Прогнал на раз, очень однообразно, после середины уже поднадоедает, минут 35 здесь были бы куда более уместны.
Go to the top of the page
  Insert nick Quick quote
+Quote Post

Reply to this topicStart new topic
1 User(s) are reading this topic (1 Guests and 0 Anonymous Users)
0 Members:

 



- Lo-Fi Version Support form
Copyrights and abuse reports form
Time is now: 19th November 2018 - 22:35:35