Welcome Guest ( Log In | Register )

> Releases Upload / Добавление релизов

Добавить релиз тут / Click here to add release
Рекомендованные обменники / Recommended file shares

> Voices From The Fuselage - Odyssey Ii: Founder Of Dreams (2018), Atmospheric Progressive Metal
post Nov 8 2018, 14:49:24
Post #1

Аннигилятор пивА
Group Icon
Group: V.I.P
Posts: 50,415
Releases: 15653
From: Koenigsberg - TILZIT
On Forums: 12 years 5 months
Thanks: 340150 time(s)
Russian Federation


(IMG:https://metalarea.org/images/audiocovers/2018_Nov/acov_tid312738_thumb.jpg)

*Artist: Voices From The Fuselage
*Album: Odyssey Ii: Founder Of Dreams
*Year: 2018
*Genre: Atmospheric Progressive Metal
*Country: United Kingdom (IMG:https://metalarea.org/forum/style_images/flags/United%20Kingdom.png)
*Format: mp3@CBR320kbps
*Size: 126MB

Tracklist:
01. Via
02. The Monolith
03. Life On Titan
04. Nine Levels
05. Vault Of Heaven
06. Vestibule Of Hell
07. Grave Digging
08. Domus
09. Destitute
10. Machina
******************************
Total playing time: 54:23



Extended info
Ashe O'Hara - Vocals (ex-TesseracT/The Fuselage)
Mitch Ramsay - Guitar
Josh Galloway - Guitar
Scott Lockhart - Drums
Dale Gorham - Bass



Technical info
(IMG:https://metalarea.org/images/spectrogram/2018_Nov/991c2ad9ef2699be9c11d9c1878b5c4c.png)
Input File: 02. The Monolith.mp3
Channels : 2
Sample Rate : 44100
Precision : 16-bit
Duration : 00:04:50.87 = 12827191 samples = 21815 CDDA sectors
File Size : 11.9M
Bit Rate : 327k
Sample Encoding: MPEG audio (layer I, II or III)
Comments :
Title=The Monolith
Artist=Voices from the Fuselage
Album=Odyssey: The Founder of Dreams
Tracknumber=2/10
Year=2018
Discnumber=1/1



Register


Go to the top of the page
  Insert nick Quick quote
+Quote Post
 
Start new topic
Replies (1 - 1)
post Nov 9 2018, 10:14:00
Post #2

Литр
*
Group: Подсевший
Posts: 71
Releases: 1
On Forums: 6 years 11 months
Thanks: 43 time(s)
Latvia


QUOTE
Alternative | Cinematic | Progressive | Post-Rock | Metal

Voices From The Fuselage are a very melodic take on progressive metal, with experimentation in time signatures and melodramatic key changes/chord sequences. It's hard to claim originality in such a vast sea of artists & music, but there is such originality in this music & it is constantly challenging itself to transcend.
Go to the top of the page
  Insert nick Quick quote
+Quote Post

Reply to this topicStart new topic
1 User(s) are reading this topic (1 Guests and 0 Anonymous Users)
0 Members:

 



- Lo-Fi Version Support form
Copyrights and abuse reports form
Time is now: 19th November 2018 - 23:17:40