Welcome Guest ( Log In | Register )

> Releases Upload / Добавление релизов

Добавить релиз тут / Click here to add release
Рекомендованные обменники / Recommended file shares

> Décembre Noir - Autumn Kings (2018), Melodic Doom/Death Metal
post Nov 8 2018, 14:51:11
Post #1

Serial Uploader
Group Icon
Group: V.I.P
Posts: 33,290
Releases: 31565
From: Lithuania
On Forums: 10 years 5 months
Thanks: 360604 time(s)
Lithuania


(IMG:https://metalarea.org/images/audiocovers/2018_Nov/acov_tid312739_thumb.jpg)

*Artist: Décembre Noir
*Album: Autumn Kings
*Year: 2018
*Genre: Melodic Doom/Death Metal
*Country: Germany (IMG:https://metalarea.org/forum/style_images/flags/Germany.png)
*Format: mp3@CBR320kbps
*Size: 160MB

Tracklist:
01. In the Pouring Rain 08:26
02. Autumn King 07:57
03. Barricades 08:35
04. A Weeping Sunrise 11:11
05. Between Silence and Shards 07:13
06. Dress.Code.Black 07:58
07. Hymn of Sorrow 11:11
08. The Downward Path 07:06
******************************
Total playing time: 1:09:37

(IMG:https://metalarea.org/images/myspace.png)


Technical info
(IMG:https://metalarea.org/images/spectrogram/2018_Nov/d9b68f04a8a91f7b716278308afea338.png)
Input File: 02-decembre_noir-autumn_king-b83e5327.mp3
Channels : 2
Sample Rate : 44100
Precision : 16-bit
Duration : 00:07:57.47 = 21056383 samples = 35810.2 CDDA sectors
File Size : 19.2M
Bit Rate : 322k
Sample Encoding: MPEG audio (layer I, II or III)
Comments :
Title=Autumn King
Artist=Décembre Noir
Album=Autumn Kings
Tracknumber=2/8
Year=2018
Genre=Death Metal



Register


Go to the top of the page
  Insert nick Quick quote
+Quote Post
 
Start new topic
Replies (1 - 5)
post Nov 9 2018, 03:14:42
Post #2

Правь статус, ####!111
**************
Group: Металариец
Posts: 14,983
Releases: 10266
From: Г.Харьков
On Forums: 6 years 6 months
Thanks: 169406 time(s)
Unknown



Register

Cloud Mail 320
Register


Go to the top of the page
  Insert nick Quick quote
+Quote Post
post Nov 10 2018, 19:16:57
Post #3

Мегаманьяк
***********
Group: Металариец
Posts: 1,612
Releases: 0
From: Dnipro
On Forums: 10 years 4 months
Thanks: 424 time(s)
Ukraine


Такие знатные посаны с новым альбомом.........и тишина (IMG:style_emoticons/default/13.gif)
А ведь альбом то зачетный (IMG:style_emoticons/default/20.gif)


Thanks:
(1) Evilded,
Go to the top of the page
  Insert nick Quick quote
+Quote Post
post Nov 10 2018, 21:14:27
Post #4

Ледоруб
**************
Group: Металариец
Posts: 20,612
Releases: 0
From: Санкт-Петербург
On Forums: 9 years 2 months
Thanks: 6711 time(s)
Russian Federation


Не помню даже, подступался ли к ним в прошлый раз.
Go to the top of the page
  Insert nick Quick quote
+Quote Post
post Nov 13 2018, 13:31:19
Post #5

Group: Дух
Posts: 6
Releases: 0
On Forums: 10 months 2 weeks
Thanks: 3 time(s)
Ukraine


Клип заинтересовал, надо брать (IMG:style_emoticons/default/smile1.gif)


Thanks:
(1) nunim,
Go to the top of the page
  Insert nick Quick quote
+Quote Post
post Nov 13 2018, 14:39:59
Post #6

Штопор Давай
***
Group: Завсегдатай
Posts: 246
Releases: 2
On Forums: 5 years 11 months
Thanks: 78 time(s)
Russian Federation


swallow the sun отдает за милю, могли бы хоть не так явно копировать
Go to the top of the page
  Insert nick Quick quote
+Quote Post

Reply to this topicStart new topic
1 User(s) are reading this topic (1 Guests and 0 Anonymous Users)
0 Members:

 



- Lo-Fi Version Support form
Copyrights and abuse reports form
Time is now: 17th November 2018 - 22:07:48