Welcome Guest ( Log In | Register )

> Releases Upload / Добавление релизов

Добавить релиз тут / Click here to add release
Рекомендованные обменники / Recommended file shares

> Third Storm - The Grand Manifestation (2018), Black/Death/Doom Metal
post Nov 8 2018, 14:59:19
Post #1

Аннигилятор пивА
Group Icon
Group: V.I.P
Posts: 50,372
Releases: 15638
From: Koenigsberg - TILZIT
On Forums: 12 years 5 months
Thanks: 339704 time(s)
Russian Federation


(IMG:https://metalarea.org/images/audiocovers/2018_Nov/acov_tid312740_thumb.jpg)

*Artist: Third Storm
*Album: The Grand Manifestation
*Year: 2018
*Genre: Black/Death/Doom Metal
*Country: Sweden (IMG:https://metalarea.org/forum/style_images/flags/Sweden.png)
*Format: mp3@CBR320kbps
*Size: 110MB

Tracklist:
1. Prima Mobilae 06:28
2. As the Stars Watched the Birth of Eternity 05:02
3. The Third Thought from the Sun 06:14
4. Sapiens Formulae 02:15
5. Through Eyes of the Omnipresent 04:25
6. Forgotten Deity 08:13
7. Gorakaathuar 06:06
8. In Wrath Enshrouded 04:35
******************************
Total playing time: 43:18




Extended info
Heval Bozarslan - Vocals (1986-1988, 2014-present) See also: Sarcasm
Daniel Ekeroth - Bass (2014-present) See also: Tyrant, ex-Dellamorte, ex-Usurpress, Iron Lamb, Soul Devourer (Swe), Uncurbed, ex-Insision, ex-Diskonto
David Eriksson - Guitars (2014-present) See also: Anguish, ex-Veternus
Hasse Hansson - Guitars (2016-present) See also: ex-Catatonic, ex-Die Hard, ex-Searing I
Alvaro Svanerö - Drums (2017-present) See also: Imperial Domain, Sandalinas, Sarcasm, ex-Loch Vostok, ex-Lou Siffer & the Howling Demons, ex-Azotic Reign


Technical info
(IMG:https://metalarea.org/images/spectrogram/2018_Nov/9fe7ddc2732d1afa2ae86527c0c29d6d.png)
Input File: 02. As the Stars Watched the Birth of Eternity.mp3
Channels : 2
Sample Rate : 44100
Precision : 16-bit
Duration : 00:05:02.02 = 13319126 samples = 22651.6 CDDA sectors
File Size : 13.4M
Bit Rate : 356k
Sample Encoding: MPEG audio (layer I, II or III)
Comments :
Title=As the Stars Watched the Birth of Eternity
Artist=Third Storm
Album=The Grand Manifestation
Tracknumber=2/8
Year=2018
Genre=Metal
Discnumber=1/1



Register


Go to the top of the page
  Insert nick Quick quote
+Quote Post
 
Start new topic
Replies (1 - 1)
post Nov 9 2018, 08:23:48
Post #2

Аннигилятор пивА
Group Icon
Group: V.I.P
Posts: 50,372
Releases: 15638
From: Koenigsberg - TILZIT
On Forums: 12 years 5 months
Thanks: 339704 time(s)
Russian Federation


mirror
Register


Go to the top of the page
  Insert nick Quick quote
+Quote Post

Reply to this topicStart new topic
1 User(s) are reading this topic (1 Guests and 0 Anonymous Users)
0 Members:

 



- Lo-Fi Version Support form
Copyrights and abuse reports form
Time is now: 17th November 2018 - 22:28:38